<?xml version="1.0" encoding="UTF-8" standalone="no"?>
<!DOCTYPE svg PUBLIC "-//W3C//DTD SVG 1.1//EN" "http://www.w3.org/Graphics/SVG/1.1/DTD/svg11.dtd">
<svg xmlns="http://www.w3.org/2000/svg">
<metadata>
This is a custom SVG font generated by IcoMoon.
<iconset grid="16"/>
</metadata>
<defs>
<font id="ElegantIcons" horiz-adv-x="512">
<font-face units-per-em="512" ascent="480" descent="-32"/>
<missing-glyph horiz-adv-x="512"/>
<glyph class="hidden" unicode="" d="M0,480L 512 -32L0 -32 z" horiz-adv-x="0"/>
<glyph unicode="!" d="M 272,32C 280.832,32, 288,39.168, 288,48L 288,361.376 l 68.672-68.672c 6.24-6.24, 16.384-6.24, 22.624,0   c 6.24,6.24, 6.24,16.384,0,22.624l-96,96C 281.824,412.8, 280.064,413.952, 278.112,414.752c-3.904,1.632-8.32,1.632-12.224,0   C 263.968,413.984, 262.272,412.832, 260.8,411.392C 260.768,411.36, 260.736,411.36, 260.672,411.328l-96-96c-6.24-6.24-6.24-16.384,0-22.624   c 6.24-6.24, 16.384-6.24, 22.624,0L 256,361.376L 256,48 C 256,39.168, 263.168,32, 272,32z"/>
<glyph unicode="&quot;" d="M 272,416C 263.168,416, 256,408.832, 256,400l0-313.376 l-68.672,68.672c-6.24,6.24-16.384,6.24-22.624,0   c-6.24-6.24-6.24-16.384,0-22.624l 96-96c 0.032-0.032, 0.096-0.032, 0.128-0.096c 1.44-1.408, 3.168-2.592, 5.056-3.36   c 3.904-1.632, 8.32-1.632, 12.224,0c 1.952,0.8, 3.712,1.984, 5.184,3.456l 96,96c 6.24,6.24, 6.24,16.384,0,22.624   c-6.24,6.24-16.384,6.24-22.624,0L 288,86.624L 288,400 C 288,408.832, 280.832,416, 272,416z"/>
<glyph unicode="#" d="M 64,239.936C 64,237.888, 64.448,235.84, 65.248,233.888c 0.768-1.888, 1.92-3.584, 3.328-5.024   C 68.608,228.8, 68.64,228.736, 68.672,228.672l 96-96c 6.24-6.24, 16.384-6.24, 22.624,0c 6.24,6.24, 6.24,16.384,0,22.624L 118.624,224L 432,224    C 440.832,224, 448,231.168, 448,240C 448,248.832, 440.832,256, 432,256L 118.624,256 l 68.672,68.672c 6.24,6.24, 6.24,16.384,0,22.624   c-6.24,6.24-16.384,6.24-22.624,0l-96-96C 68.64,251.264, 68.608,251.168, 68.576,251.136C 67.168,249.696, 66.016,248, 65.248,246.112   C 64.416,244.16, 64,242.080, 64,240l0,0C 64,239.968, 64,239.968, 64,239.936z"/>
<glyph unicode="$" d="M 64,240C 64,231.168, 71.168,224, 80,224l 313.376,0 l-68.672-68.672c-6.24-6.24-6.24-16.384,0-22.624   c 6.24-6.24, 16.384-6.24, 22.624,0l 96,96c 1.472,1.472, 2.656,3.232, 3.456,5.184C 447.552,235.84, 448,237.888, 448,239.936c0,0.032,0,0.032,0,0.064   l0,0c0,2.080-0.416,4.16-1.248,6.112c-0.8,1.952-1.984,3.712-3.456,5.184l-96,96c-6.24,6.24-16.384,6.24-22.624,0   c-6.24-6.24-6.24-16.384,0-22.624L 393.376,256L 80,256 C 71.168,256, 64,248.832, 64,240z"/>
<glyph unicode="%" d="M 64,240C 64,231.168, 71.168,224, 80,224S 96,231.168, 96,240L 96,361.376 l 324.672-324.672c 6.24-6.24, 16.384-6.24, 22.624,0   c 6.24,6.24, 6.24,16.384,0,22.624L 118.624,384L 240,384 C 248.832,384, 256,391.168, 256,400C 256,408.832, 248.832,416, 240,416l-160,0 C 77.92,416, 75.84,415.584, 73.888,414.752   C 71.968,413.984, 70.272,412.832, 68.8,411.392C 68.768,411.36, 68.736,411.36, 68.672,411.328C 68.64,411.264, 68.608,411.168, 68.576,411.136   C 67.168,409.696, 66.016,408, 65.248,406.112C 64.416,404.16, 64,402.080, 64,400l0,0L 64,240 z"/>
<glyph unicode="&amp;" d="M 68.672,36.672c 6.24-6.24, 16.384-6.24, 22.624,0L 416,361.376L 416,240 C 416,231.168, 423.168,224, 432,224S 448,231.168, 448,240l0,160    l0,0c0,2.080-0.416,4.16-1.248,6.112c-1.632,3.904-4.736,7.040-8.64,8.64C 436.16,415.584, 434.080,416, 432,416l-160,0 C 263.168,416, 256,408.832, 256,400   C 256,391.168, 263.168,384, 272,384l 121.376,0 L 68.672,59.328C 62.432,53.056, 62.432,42.944, 68.672,36.672z"/>
<glyph unicode="'" d="M 432,224C 423.168,224, 416,216.832, 416,208l0-121.376 L 91.328,411.328c-6.24,6.24-16.384,6.24-22.624,0   c-6.24-6.24-6.24-16.384,0-22.624L 393.376,64L 272,64 C 263.168,64, 256,56.832, 256,48C 256,39.168, 263.168,32, 272,32l 160,0    c 2.080,0, 4.16,0.416, 6.112,1.248c 3.904,1.632, 7.040,4.736, 8.64,8.64C 447.552,43.84, 448,45.888, 448,47.936c0,0.032,0,0.032,0,0.064l0,160    C 448,216.832, 440.832,224, 432,224z"/>
<glyph unicode="(" d="M 80,224C 71.168,224, 64,216.832, 64,208l0-160 c0-0.032,0-0.032,0-0.064c0-2.080, 0.416-4.128, 1.216-6.048   c 0.768-1.888, 1.92-3.584, 3.328-5.024c 0.064-0.064, 0.064-0.128, 0.128-0.192c 0.032-0.032, 0.096-0.032, 0.128-0.096   c 1.44-1.408, 3.168-2.592, 5.056-3.36C 75.84,32.416, 77.92,32, 80,32l 160,0 C 248.832,32, 256,39.168, 256,48C 256,56.832, 248.832,64, 240,64L 118.624,64    L 443.328,388.672c 6.24,6.24, 6.24,16.384,0,22.624c-6.24,6.24-16.384,6.24-22.624,0L 96,86.624L 96,208 C 96,216.832, 88.832,224, 80,224z"/>
<glyph unicode=")" d="M 324.672,388.672c 6.24-6.24, 16.384-6.24, 22.624,0c 6.24,6.24, 6.24,16.384,0,22.624l-64,64   C 281.824,476.8, 280.064,477.952, 278.112,478.752c-3.904,1.632-8.32,1.632-12.224,0C 263.968,477.984, 262.272,476.832, 260.8,475.392   C 260.768,475.36, 260.736,475.36, 260.672,475.328l-64-64c-6.24-6.24-6.24-16.384,0-22.624c 6.24-6.24, 16.384-6.24, 22.624,0L 256,425.376l0-402.752    l-36.672,36.672c-6.24,6.24-16.384,6.24-22.624,0c-6.24-6.24-6.24-16.384,0-22.624l 64-64c 0.032-0.032, 0.096-0.032, 0.128-0.096   c 1.44-1.408, 3.168-2.592, 5.056-3.36c 3.904-1.632, 8.32-1.632, 12.224,0c 1.952,0.8, 3.712,1.984, 5.184,3.456l 64,64   c 6.24,6.24, 6.24,16.384,0,22.624c-6.24,6.24-16.384,6.24-22.624,0L 288,22.624L 288,425.376 L 324.672,388.672z"/>
<glyph unicode="*" d="M 292.48-27.488c 3.136-3.136, 7.264-4.704, 11.36-4.672c 4.128,0, 8.224,1.536, 11.36,4.672l 61.632,61.632   c 6.24,6.24, 6.24,16.384,0,22.624s-16.384,6.24-22.624,0L 320,22.56l0,281.28 c0,8.832-7.168,16-16,16S 288,312.672, 288,303.84l0-281.6    l-36.864,36.864c-6.24,6.24-16.384,6.24-22.624,0c-6.24-6.24-6.24-16.384,0-22.624L 292.48-27.488zM 208,127.84c 8.832,0, 16,7.168, 16,16l0,281.6 l 36.864-36.864c 6.24-6.24, 16.384-6.24, 22.624,0   c 6.24,6.24, 6.24,16.384,0,22.624L 219.52,475.168C 216.384,478.304, 212.288,479.84, 208.16,479.84c-4.128,0-8.224-1.536-11.36-4.672L 135.168,413.536   c-6.24-6.24-6.24-16.384,0-22.624c 6.24-6.24, 16.384-6.24, 22.624,0L 192,425.12l0-281.28 C 192,135.008, 199.168,127.84, 208,127.84z"/>
<glyph unicode="+" d="M 88.928,103.008c 6.24,6.24, 6.24,16.384,0,22.624L 54.56,160L 336,160 c 8.832,0, 16,7.168, 16,16   C 352,184.832, 344.832,192, 336,192L 54.56,192 l 36.704,36.704c 6.24,6.24, 6.24,16.384,0,22.624c-6.24,6.24-16.384,6.24-22.624,0L 4.672,187.36   C 1.536,184.224,0,180.128,0,176c0-4.128, 1.536-8.224, 4.672-11.36l 61.632-61.632C 72.576,96.736, 82.688,96.736, 88.928,103.008zM 507.328,283.040l-61.632,61.632c-6.24,6.24-16.384,6.24-22.624,0s-6.24-16.384,0-22.624l 34.368-34.368L 176,287.68    C 167.168,287.68, 160,280.512, 160,271.68s 7.168-16, 16-16l 281.44,0 l-36.704-36.704c-6.24-6.24-6.24-16.384,0-22.624   c 6.24-6.24, 16.384-6.24, 22.624,0l 63.968,63.968C 510.464,263.456, 512,267.552, 512,271.68C 512,275.808, 510.464,279.904, 507.328,283.040z"/>
<glyph unicode="," d="M 510.752,214.112c-0.8,1.952-1.984,3.712-3.456,5.184l-64,64c-6.24,6.24-16.384,6.24-22.624,0   c-6.24-6.24-6.24-16.384,0-22.624L 457.376,224L 54.624,224 l 36.672,36.672c 6.24,6.24, 6.24,16.384,0,22.624c-6.24,6.24-16.384,6.24-22.624,0   l-64-64C 4.64,219.264, 4.608,219.168, 4.576,219.136C 3.168,217.696, 2.016,216, 1.248,214.112C 0.416,212.16,0,210.080,0,208l0,0   c0-0.032,0-0.032,0-0.064C0,205.888, 0.448,203.84, 1.248,201.888c 0.768-1.888, 1.92-3.584, 3.328-5.024C 4.608,196.8, 4.64,196.736, 4.672,196.672   l 64-64c 6.24-6.24, 16.384-6.24, 22.624,0c 6.24,6.24, 6.24,16.384,0,22.624L 54.624,192l 402.752,0 l-36.672-36.672   c-6.24-6.24-6.24-16.384,0-22.624c 6.24-6.24, 16.384-6.24, 22.624,0l 64,64c 1.472,1.472, 2.656,3.232, 3.456,5.184   C 511.552,203.84, 512,205.888, 512,207.936c0,0.032,0,0.032,0,0.064l0,0C 512,210.080, 511.584,212.16, 510.752,214.112z"/>
<glyph unicode="-" d="M 64,240C 64,231.168, 71.168,224, 80,224S 96,231.168, 96,240L 96,361.376 L 393.376,64L 272,64 C 263.168,64, 256,56.832, 256,48   C 256,39.168, 263.168,32, 272,32l 160,0 c 2.080,0, 4.16,0.416, 6.112,1.248c 3.904,1.632, 7.040,4.736, 8.64,8.64C 447.552,43.84, 448,45.888, 448,47.936   c0,0.032,0,0.032,0,0.064l0,160 C 448,216.832, 440.832,224, 432,224S 416,216.832, 416,208l0-121.376 L 118.624,384L 240,384 C 248.832,384, 256,391.168, 256,400   C 256,408.832, 248.832,416, 240,416l-160,0 C 77.92,416, 75.84,415.584, 73.888,414.752C 71.968,413.984, 70.272,412.832, 68.8,411.392   C 68.768,411.36, 68.736,411.36, 68.672,411.328C 68.64,411.264, 68.608,411.168, 68.576,411.136C 67.168,409.696, 66.016,408, 65.248,406.112   C 64.416,404.16, 64,402.080, 64,400l0,0L 64,240 z"/>
<glyph unicode="." d="M 80,224C 71.168,224, 64,216.832, 64,208l0-160 c0-0.032,0-0.032,0-0.064c0-2.080, 0.416-4.128, 1.216-6.048   c 0.768-1.888, 1.92-3.584, 3.328-5.024c 0.064-0.064, 0.064-0.128, 0.128-0.192c 0.032-0.032, 0.096-0.032, 0.128-0.096   c 1.44-1.408, 3.168-2.592, 5.056-3.36C 75.84,32.416, 77.92,32, 80,32l 160,0 C 248.832,32, 256,39.168, 256,48C 256,56.832, 248.832,64, 240,64L 118.624,64    L 416,361.376L 416,240 C 416,231.168, 423.168,224, 432,224S 448,231.168, 448,240l0,160 l0,0c0,2.080-0.416,4.16-1.248,6.112c-1.632,3.904-4.736,7.040-8.64,8.64   C 436.16,415.584, 434.080,416, 432,416l-160,0 C 263.168,416, 256,408.832, 256,400C 256,391.168, 263.168,384, 272,384l 121.376,0 L 96,86.624L 96,208 C 96,216.832, 88.832,224, 80,224z"/>
<glyph unicode="/" d="M 475.328,443.328c-6.24,6.24-16.384,6.24-22.624,0L 320,310.624L 320,400 C 320,408.832, 312.832,416, 304,416S 288,408.832, 288,400l0-128    c0-0.032,0-0.032,0-0.064C 288,269.888, 288.448,267.84, 289.248,265.888c 0.768-1.888, 1.92-3.584, 3.328-5.024C 292.608,260.8, 292.64,260.736, 292.672,260.672   C 292.736,260.64, 292.768,260.64, 292.8,260.608c 1.44-1.408, 3.168-2.592, 5.056-3.36C 299.84,256.416, 301.92,256, 304,256l 128,0 C 440.832,256, 448,263.168, 448,272   C 448,280.832, 440.832,288, 432,288l-89.376,0 l 132.672,132.672C 481.568,426.944, 481.568,437.056, 475.328,443.328zM 36.672,4.672c 6.24-6.24, 16.384-6.24, 22.624,0L 192,137.376L 192,48 C 192,39.168, 199.168,32, 208,32S 224,39.168, 224,48l0,128    l0,0c0,2.080-0.416,4.16-1.248,6.112c-1.632,3.904-4.736,7.040-8.64,8.64C 212.16,191.584, 210.080,192, 208,192l-128,0 C 71.168,192, 64,184.832, 64,176   C 64,167.168, 71.168,160, 80,160l 89.376,0 l-132.672-132.672C 30.432,21.056, 30.432,10.944, 36.672,4.672z"/>
<glyph unicode="0" d="M 478.752,438.112c-1.632,3.904-4.736,7.040-8.64,8.64C 468.16,447.584, 466.080,448, 464,448l-128,0 C 327.168,448, 320,440.832, 320,432   C 320,423.168, 327.168,416, 336,416l 89.376,0 L 292.672,283.328c-6.24-6.24-6.24-16.384,0-22.624c 6.24-6.24, 16.384-6.24, 22.624,0L 448,393.376L 448,304    C 448,295.168, 455.168,288, 464,288S 480,295.168, 480,304l0,128 l0,0C 480,434.080, 479.584,436.16, 478.752,438.112zM 48,160C 39.168,160, 32,152.832, 32,144l0-128 c0-0.032,0-0.032,0-0.064c0-2.080, 0.416-4.128, 1.216-6.048   c 0.768-1.888, 1.92-3.584, 3.328-5.024c 0.064-0.064, 0.064-0.128, 0.128-0.192c 0.032-0.032, 0.096-0.032, 0.128-0.096   c 1.44-1.408, 3.168-2.592, 5.056-3.36C 43.84,0.416, 45.92,0, 48,0l 128,0 C 184.832,0, 192,7.168, 192,16C 192,24.832, 184.832,32, 176,32L 86.624,32    l 132.672,132.672c 6.24,6.24, 6.24,16.384,0,22.624c-6.24,6.24-16.384,6.24-22.624,0L 64,54.624L 64,144 C 64,152.832, 56.832,160, 48,160z"/>
<glyph unicode="1" d="M 510.752,214.112c-0.8,1.952-1.984,3.712-3.456,5.184l-64,64c-6.24,6.24-16.384,6.24-22.624,0   c-6.24-6.24-6.24-16.384,0-22.624L 457.376,224L 288,224 L 288,393.376 l 36.672-36.672c 6.24-6.24, 16.384-6.24, 22.624,0c 6.24,6.24, 6.24,16.384,0,22.624   l-64,64C 283.264,443.36, 283.168,443.392, 283.136,443.424C 281.696,444.832, 280,445.984, 278.112,446.752C 276.16,447.584, 274.080,448, 272,448C 271.968,448, 271.968,448, 271.936,448   C 269.888,448, 267.84,447.552, 265.888,446.752C 264,445.984, 262.304,444.832, 260.864,443.424C 260.8,443.392, 260.736,443.36, 260.672,443.328l-64-64   c-6.24-6.24-6.24-16.384,0-22.624c 6.24-6.24, 16.384-6.24, 22.624,0L 256,393.376L 256,224 L 86.624,224 l 36.672,36.672c 6.24,6.24, 6.24,16.384,0,22.624   c-6.24,6.24-16.384,6.24-22.624,0l-64-64C 36.64,219.264, 36.608,219.168, 36.576,219.136C 35.168,217.696, 34.016,216, 33.248,214.112   C 32.416,212.16, 32,210.080, 32,208c0-0.032,0-0.032,0-0.064C 32,205.888, 32.448,203.84, 33.248,201.888c 0.768-1.888, 1.92-3.584, 3.328-5.024   C 36.608,196.8, 36.64,196.736, 36.672,196.672l 64-64c 6.24-6.24, 16.384-6.24, 22.624,0c 6.24,6.24, 6.24,16.384,0,22.624L 86.624,192L 256,192 l0-169.376    l-36.672,36.672c-6.24,6.24-16.384,6.24-22.624,0c-6.24-6.24-6.24-16.384,0-22.624l 64-64c 1.472-1.472, 3.232-2.656, 5.184-3.456   C 267.84-31.552, 269.888-32, 271.936-32c 0.032,0, 0.032,0, 0.064,0c 2.080,0, 4.16,0.416, 6.112,1.248c 1.952,0.8, 3.712,1.984, 5.184,3.456l 64,64   c 6.24,6.24, 6.24,16.384,0,22.624c-6.24,6.24-16.384,6.24-22.624,0L 288,22.624L 288,192 l 169.376,0 l-36.672-36.672   c-6.24-6.24-6.24-16.384,0-22.624c 6.24-6.24, 16.384-6.24, 22.624,0l 64,64c 1.472,1.472, 2.656,3.232, 3.456,5.184   C 511.552,203.84, 512,205.888, 512,207.936c0,0.032,0,0.032,0,0.064C 512,210.080, 511.584,212.16, 510.752,214.112z"/>
<glyph unicode="2" d="M 179.488,156.8L 272,249.312l 92.512-92.512c 6.24-6.24, 16.384-6.24, 22.624,0c 6.24,6.24, 6.24,16.384,0,22.624   L 283.36,283.2C 280.224,286.336, 276.128,287.872, 272,287.872c-4.128,0-8.224-1.536-11.36-4.672L 156.864,179.424c-6.24-6.24-6.24-16.384,0-22.624   C 163.104,150.56, 173.248,150.56, 179.488,156.8z"/>
<glyph unicode="3" d="M 364.512,259.2L 272,166.688L 179.488,259.2c-6.24,6.24-16.384,6.24-22.624,0c-6.24-6.24-6.24-16.384,0-22.624   l 103.776-103.776c 3.136-3.136, 7.264-4.704, 11.36-4.672c 4.128,0, 8.224,1.536, 11.36,4.672l 103.776,103.776c 6.24,6.24, 6.24,16.384,0,22.624   C 380.896,265.44, 370.752,265.44, 364.512,259.2z"/>
<glyph unicode="4" d="M 196.8,196.64l 103.776-103.776c 6.24-6.24, 16.384-6.24, 22.624,0c 6.24,6.24, 6.24,16.384,0,22.624L 230.688,208   L 323.2,300.512c 6.24,6.24, 6.24,16.384,0,22.624c-6.24,6.24-16.384,6.24-22.624,0L 196.8,219.36C 193.664,216.224, 192.128,212.128, 192.128,208   C 192.128,203.872, 193.664,199.776, 196.8,196.64z"/>
<glyph unicode="5" d="M 220.8,92.864c 6.24-6.24, 16.384-6.24, 22.624,0l 103.776,103.776c 3.136,3.136, 4.704,7.264, 4.672,11.36   c0,4.128-1.536,8.224-4.672,11.36L 243.424,323.136c-6.24,6.24-16.384,6.24-22.624,0c-6.24-6.24-6.24-16.384,0-22.624L 313.312,208   L 220.8,115.488C 214.56,109.248, 214.56,99.104, 220.8,92.864z"/>
<glyph unicode="6" d="M 375.232,252.608L 268.192,347.296c-3.2,3.2-7.392,4.736-11.584,4.672C 252.384,352.032, 248.192,350.496, 244.992,347.296   L 137.952,252.608c-6.272-6.272-6.272-16.48,0-22.752c 6.272-6.272, 16.48-6.272, 22.752,0l 95.872,84.832l 95.872-84.832   c 6.272-6.272, 16.48-6.272, 22.752,0C 381.536,236.128, 381.536,246.304, 375.232,252.608zM 268.192,232.544c-3.2,3.2-7.392,4.736-11.584,4.672C 252.384,237.28, 248.192,235.744, 244.992,232.544l-107.040-94.688   c-6.272-6.272-6.272-16.48,0-22.752c 6.272-6.272, 16.48-6.272, 22.752,0l 95.872,84.8l 95.872-84.8c 6.272-6.272, 16.48-6.272, 22.752,0   c 6.272,6.272, 6.272,16.48,0,22.752L 268.192,232.544z"/>
<glyph unicode="7" d="M 351.296,218.176l-95.872-84.8l-95.872,84.8c-6.272,6.272-16.48,6.272-22.752,0c-6.272-6.272-6.272-16.48,0-22.752   l 107.040-94.688c 3.2-3.2, 7.392-4.736, 11.584-4.672C 259.616,96, 263.808,97.504, 267.008,100.704l 107.040,94.688c 6.272,6.272, 6.272,16.48,0,22.752   S 357.568,224.448, 351.296,218.176zM 374.048,332.928c-6.272,6.272-16.48,6.272-22.752,0l-95.872-84.8l-95.872,84.8C 153.248,339.2, 143.040,339.2, 136.768,332.928   c-6.272-6.272-6.272-16.48,0-22.752l 107.040-94.688c 3.2-3.2, 7.392-4.736, 11.584-4.672c 4.192-0.064, 8.416,1.472, 11.584,4.672l 107.040,94.688   C 380.352,316.448, 380.352,326.624, 374.048,332.928z"/>
<glyph unicode="8" d="M 132.704,212.992l 94.688-107.040c 6.272-6.272, 16.48-6.272, 22.752,0s 6.272,16.48,0,22.752l-84.8,95.872l 84.8,95.872   c 6.272,6.272, 6.272,16.48,0,22.752s-16.48,6.272-22.752,0L 132.704,236.192C 129.504,232.992, 128,228.8, 128.032,224.608   C 128,220.416, 129.504,216.192, 132.704,212.992zM 364.928,343.232c-6.272,6.272-16.48,6.272-22.752,0L 247.456,236.192c-3.2-3.2-4.736-7.392-4.672-11.584   C 242.752,220.416, 244.256,216.192, 247.456,212.992l 94.688-107.040c 6.272-6.272, 16.48-6.272, 22.752,0s 6.272,16.48,0,22.752l-84.8,95.872l 84.8,95.872   C 371.2,326.752, 371.2,336.96, 364.928,343.232z"/>
<glyph unicode="9" d="M 379.296,235.008L 284.608,342.048c-6.272,6.272-16.48,6.272-22.752,0s-6.272-16.48,0-22.752l 84.8-95.872l-84.8-95.872   c-6.272-6.272-6.272-16.48,0-22.752s 16.48-6.272, 22.752,0l 94.688,107.040c 3.2,3.2, 4.736,7.392, 4.672,11.584   C 384,227.616, 382.496,231.808, 379.296,235.008zM 147.072,104.768c 6.272-6.272, 16.48-6.272, 22.752,0l 94.688,107.040c 3.2,3.2, 4.736,7.392, 4.672,11.584   c 0.064,4.192-1.472,8.416-4.672,11.584L 169.856,342.048c-6.272,6.272-16.48,6.272-22.752,0s-6.272-16.48,0-22.752l 84.8-95.872l-84.8-95.872   C 140.8,121.248, 140.8,111.040, 147.072,104.768z"/>
<glyph unicode=":" d="M 283.36,283.2C 280.224,286.336, 276.128,287.872, 272,287.872c-4.128,0-8.224-1.536-11.36-4.672L 156.864,179.424   c-6.24-6.24-6.24-16.384,0-22.624c 6.24-6.24, 16.384-6.24, 22.624,0L 272,249.312l 92.512-92.512c 6.24-6.24, 16.384-6.24, 22.624,0   c 6.24,6.24, 6.24,16.384,0,22.624L 283.36,283.2zM 273.056,445.856c-131.968,0-238.944-106.976-238.944-238.944S 141.12-32, 273.056-32S 512,74.976, 512,206.944   S 405.024,445.856, 273.056,445.856z M 273.056,0c-114.112,0-206.944,92.832-206.944,206.944s 92.832,206.944, 206.944,206.944S 480,321.024, 480,206.944   S 387.168,0, 273.056,0z"/>
<glyph unicode=";" d="M 364.512,259.2L 272,166.688L 179.488,259.2c-6.24,6.24-16.384,6.24-22.624,0c-6.24-6.24-6.24-16.384,0-22.624   l 103.776-103.776c 3.136-3.136, 7.264-4.704, 11.36-4.672c 4.128,0, 8.224,1.536, 11.36,4.672l 103.776,103.776c 6.24,6.24, 6.24,16.384,0,22.624   C 380.896,265.44, 370.752,265.44, 364.512,259.2zM 273.152,445.728c-131.904,0-238.848-106.944-238.848-238.848C 34.272,74.944, 141.216-32, 273.152-32   C 405.056-32, 512,74.944, 512,206.848C 512,338.784, 405.056,445.728, 273.152,445.728z M 273.152,0c-114.048,0-206.848,92.8-206.848,206.848   c0,114.048, 92.8,206.848, 206.848,206.848C 387.2,413.728, 480,320.928, 480,206.848C 480,92.8, 387.2,0, 273.152,0z"/>
<glyph unicode="&lt;" d="M 323.2,323.136c-6.24,6.24-16.384,6.24-22.624,0L 196.8,219.36C 193.664,216.224, 192.128,212.128, 192.128,208   c0-4.128, 1.536-8.224, 4.672-11.36l 103.776-103.776c 6.24-6.24, 16.384-6.24, 22.624,0c 6.24,6.24, 6.24,16.384,0,22.624L 230.688,208   L 323.2,300.512C 329.44,306.752, 329.44,316.896, 323.2,323.136zM 272,448C 139.456,448, 32,340.544, 32,208S 139.456-32, 272-32S 512,75.456, 512,208S 404.544,448, 272,448z M 272,0   C 157.312,0, 64,93.312, 64,208S 157.312,416, 272,416S 480,322.688, 480,208S 386.688,0, 272,0z"/>
<glyph unicode="=" d="M 347.2,219.36L 243.424,323.136c-6.24,6.24-16.384,6.24-22.624,0c-6.24-6.24-6.24-16.384,0-22.624L 313.312,208   L 220.8,115.488c-6.24-6.24-6.24-16.384,0-22.624c 6.24-6.24, 16.384-6.24, 22.624,0l 103.776,103.776c 3.136,3.136, 4.704,7.264, 4.672,11.36   C 351.872,212.128, 350.336,216.224, 347.2,219.36zM 273.152,445.696c-131.904,0-238.848-106.944-238.848-238.848S 141.248-32, 273.152-32S 512,74.944, 512,206.848   S 405.056,445.696, 273.152,445.696z M 273.152,0c-114.048,0-206.848,92.8-206.848,206.848s 92.8,206.848, 206.848,206.848S 480,320.896, 480,206.848S 387.2,0, 273.152,0z"/>
<glyph unicode="&gt;" d="M 284.192,331.296c-3.2,3.2-7.392,4.736-11.584,4.672C 268.384,336.032, 264.192,334.496, 260.992,331.296L 153.952,236.608   c-6.272-6.272-6.272-16.48,0-22.752c 6.272-6.272, 16.48-6.272, 22.752,0l 95.872,84.832l 95.872-84.832c 6.272-6.272, 16.48-6.272, 22.752,0   c 6.272,6.272, 6.272,16.48,0,22.752L 284.192,331.296zM 284.192,216.544c-3.2,3.2-7.392,4.736-11.584,4.672C 268.384,221.28, 264.192,219.744, 260.992,216.544l-107.040-94.688   c-6.272-6.272-6.272-16.48,0-22.752c 6.272-6.272, 16.48-6.272, 22.752,0l 95.872,84.8l 95.872-84.8c 6.272-6.272, 16.48-6.272, 22.752,0   c 6.272,6.272, 6.272,16.48,0,22.752L 284.192,216.544zM 273.152,445.696c-131.904,0-238.848-106.944-238.848-238.848S 141.248-32, 273.152-32S 512,74.944, 512,206.848   S 405.056,445.696, 273.152,445.696z M 273.152,0c-114.048,0-206.848,92.8-206.848,206.848s 92.8,206.848, 206.848,206.848S 480,320.896, 480,206.848S 387.2,0, 273.152,0z"/>
<glyph unicode="?" d="M 367.296,202.176l-95.872-84.8l-95.872,84.8c-6.272,6.272-16.48,6.272-22.752,0c-6.272-6.272-6.272-16.48,0-22.752   l 107.040-94.688c 3.2-3.2, 7.392-4.736, 11.584-4.672c 4.192-0.064, 8.416,1.472, 11.584,4.672l 107.040,94.688c 6.272,6.272, 6.272,16.48,0,22.752   S 373.568,208.448, 367.296,202.176zM 367.296,316.928l-95.872-84.8l-95.872,84.8C 169.248,323.2, 159.040,323.2, 152.768,316.928c-6.272-6.272-6.272-16.48,0-22.752   l 107.040-94.688c 3.2-3.2, 7.392-4.736, 11.584-4.672c 4.192-0.064, 8.416,1.472, 11.584,4.672l 107.040,94.688c 6.272,6.272, 6.272,16.48,0,22.752   S 373.568,323.2, 367.296,316.928zM 273.152,445.696c-131.904,0-238.848-106.944-238.848-238.848S 141.248-32, 273.152-32S 512,74.944, 512,206.848   S 405.056,445.696, 273.152,445.696z M 273.152,0c-114.048,0-206.848,92.8-206.848,206.848s 92.8,206.848, 206.848,206.848S 480,320.896, 480,206.848S 387.2,0, 273.152,0z"/>
<glyph unicode="@" d="M 181.344,208.608l 84.8,95.872c 6.272,6.272, 6.272,16.48,0,22.752s-16.48,6.272-22.752,0L 148.704,220.192   c-3.2-3.2-4.736-7.392-4.672-11.584C 144,204.416, 145.504,200.192, 148.704,196.992l 94.688-107.040c 6.272-6.272, 16.48-6.272, 22.752,0   s 6.272,16.48,0,22.752L 181.344,208.608zM 380.928,327.232c-6.272,6.272-16.48,6.272-22.752,0L 263.456,220.192c-3.2-3.2-4.736-7.392-4.672-11.584   C 258.752,204.416, 260.256,200.192, 263.456,196.992l 94.688-107.040c 6.272-6.272, 16.48-6.272, 22.752,0s 6.272,16.48,0,22.752l-84.8,95.872l 84.8,95.872   C 387.2,310.752, 387.2,320.96, 380.928,327.232zM 272,448C 139.456,448, 32,340.544, 32,208S 139.456-32, 272-32S 512,75.456, 512,208S 404.544,448, 272,448z M 272,0   C 157.312,0, 64,93.312, 64,208S 157.312,416, 272,416S 480,322.688, 480,208S 386.688,0, 272,0z"/>
<glyph unicode="A" d="M 395.296,219.008L 300.608,326.048c-6.272,6.272-16.48,6.272-22.752,0s-6.272-16.48,0-22.752l 84.8-95.872l-84.8-95.872   c-6.272-6.272-6.272-16.48,0-22.752s 16.48-6.272, 22.752,0l 94.688,107.040c 3.2,3.2, 4.736,7.392, 4.672,11.584   C 400,211.616, 398.496,215.808, 395.296,219.008zM 285.216,207.424c 0.064,4.192-1.472,8.416-4.672,11.584L 185.856,326.048c-6.272,6.272-16.48,6.272-22.752,0   s-6.272-16.48,0-22.752l 84.8-95.872l-84.8-95.872c-6.272-6.272-6.272-16.48,0-22.752s 16.48-6.272, 22.752,0l 94.688,107.040   C 283.744,199.008, 285.28,203.2, 285.216,207.424zM 272,448C 139.456,448, 32,340.544, 32,208S 139.456-32, 272-32S 512,75.456, 512,208S 404.544,448, 272,448z M 272,0   C 157.312,0, 64,93.312, 64,208S 157.312,416, 272,416S 480,322.688, 480,208S 386.688,0, 272,0z"/>
<glyph unicode="B" d="M 143.968,160l 223.456,0 c 4.576,0, 8.64,2.208, 11.52,5.632l 0.064-0.064c 6.24,6.944, 6.24,18.208,0,25.152L 267.040,314.784   c-6.24,6.944-16.352,6.944-22.56,0c-0.16-0.192-0.224-0.448-0.384-0.64L 132.352,190.72c-6.24-6.944-6.24-18.208,0-25.152   C 132.416,165.504, 132.48,165.472, 132.544,165.408C 135.456,162.080, 139.456,160, 143.968,160z"/>
<glyph unicode="C" d="M 266.912,165.216c 0.16,0.192, 0.224,0.448, 0.384,0.64l 111.712,123.424c 6.24,6.944, 6.24,18.208,0,25.152   c-0.064,0.064-0.128,0.096-0.192,0.128C 375.936,317.92, 371.904,320, 367.424,320L 143.968,320 c-4.576,0-8.64-2.208-11.552-5.632L 132.352,314.432   c-6.24-6.944-6.24-18.208,0-25.152l 111.968-124.064C 250.56,158.272, 260.672,158.272, 266.912,165.216z"/>
<glyph unicode="D" d="M 289.28,347.648L 165.216,235.648c-6.944-6.24-6.944-16.352,0-22.56c 0.192-0.16, 0.448-0.224, 0.64-0.384l 123.424-111.712   c 6.944-6.24, 18.208-6.24, 25.152,0c 0.064,0.064, 0.064,0.128, 0.128,0.192C 317.92,104.064, 320,108.096, 320,112.576L 320,336.032    c0,4.576-2.208,8.64-5.632,11.52l 0.064,0.064C 307.488,353.856, 296.224,353.856, 289.28,347.648z"/>
<glyph unicode="E" d="M 222.304,100.384l 122.432,112.256c 6.848,6.24, 6.848,16.384,0,22.624c-0.192,0.16-0.448,0.224-0.64,0.384   l-121.792,112c-6.848,6.24-17.984,6.24-24.832,0C 197.44,347.584, 197.408,347.488, 197.344,347.424C 194.080,344.544, 192,340.512, 192,336l0-224    c0-4.576, 2.176-8.64, 5.536-11.552l-0.064-0.064C 204.352,94.112, 215.456,94.112, 222.304,100.384z"/>
<glyph unicode="F" d="M 272,448C 139.456,448, 32,340.544, 32,208S 139.456-32, 272-32S 512,75.456, 512,208S 404.544,448, 272,448z M 272,0   C 157.312,0, 64,93.312, 64,208S 157.312,416, 272,416S 480,322.688, 480,208S 386.688,0, 272,0zM 281.6,282.784c-5.44,6.944-14.304,6.944-19.744,0c-0.16-0.192-0.192-0.448-0.352-0.64L 163.776,158.72   c-5.44-6.944-5.44-18.208,0-25.152c 0.032-0.064, 0.128-0.064, 0.16-0.128C 166.464,130.080, 169.984,128, 173.92,128l 195.52,0    c 4,0, 7.552,2.208, 10.080,5.632l 0.064-0.064c 5.44,6.944, 5.44,18.208,0,25.152L 281.6,282.784z"/>
<glyph unicode="G" d="M 272,448C 139.456,448, 32,340.544, 32,208S 139.456-32, 272-32S 512,75.456, 512,208S 404.544,448, 272,448z M 272,0   C 157.312,0, 64,93.312, 64,208S 157.312,416, 272,416S 480,322.688, 480,208S 386.688,0, 272,0zM 379.744,250.592C 377.216,253.92, 373.696,256, 369.76,256l-195.52,0 C 170.24,256, 166.688,253.792, 164.16,250.368L 164.096,250.432   c-5.44-6.944-5.44-18.208,0-25.152l 97.984-124.064c 5.44-6.944, 14.304-6.944, 19.744,0c 0.16,0.192, 0.192,0.448, 0.352,0.64l 97.76,123.424   c 5.44,6.944, 5.44,18.208,0,25.152C 379.872,250.496, 379.808,250.528, 379.744,250.592z"/>
<glyph unicode="H" d="M 272,448C 139.456,448, 32,340.544, 32,208S 139.456-32, 272-32S 512,75.456, 512,208S 404.544,448, 272,448z M 272,0   C 157.312,0, 64,93.312, 64,208S 157.312,416, 272,416S 480,322.688, 480,208S 386.688,0, 272,0zM 314.432,316.224c-6.944,5.44-18.208,5.44-25.152,0L 165.216,218.24c-6.944-5.44-6.944-14.304,0-19.744   c 0.192-0.16, 0.448-0.192, 0.64-0.352l 123.424-97.76c 6.944-5.44, 18.208-5.44, 25.152,0c 0.064,0.032, 0.064,0.128, 0.128,0.16   C 317.92,103.104, 320,106.624, 320,110.56l0,195.52 C 320,310.080, 317.792,313.632, 314.368,316.16L 314.432,316.224z"/>
<glyph unicode="I" d="M 272,448C 139.456,448, 32,340.544, 32,208S 139.456-32, 272-32S 512,75.456, 512,208S 404.544,448, 272,448z M 272,0   C 157.312,0, 64,93.312, 64,208S 157.312,416, 272,416S 480,322.688, 480,208S 386.688,0, 272,0zM 378.144,218.464L 254.72,316.224c-6.944,5.44-18.208,5.44-25.152,0C 229.504,316.16, 229.472,316.096, 229.408,316.064   C 226.080,313.536, 224,310.016, 224,306.080l0-195.52 c0-4, 2.208-7.552, 5.632-10.080l-0.064-0.064c 6.944-5.44, 18.208-5.44, 25.152,0L 378.784,198.4   c 6.944,5.44, 6.944,14.304,0,19.744C 378.592,218.304, 378.336,218.336, 378.144,218.464z"/>
<glyph unicode="J" d="M 68.672,228.672l 96-96c 6.24-6.24, 16.384-6.24, 22.624,0c 6.24,6.24, 6.24,16.384,0,22.624L 118.624,224L 352,224    c 64,0, 96-59.072, 96-112c0-8.832, 7.168-16, 16-16s 16,7.168, 16,16C 480,182.592, 448,256, 352,256L 118.624,256 l 68.672,68.672   c 6.24,6.24, 6.24,16.384,0,22.624c-6.24,6.24-16.384,6.24-22.624,0l-96-96C 62.432,245.056, 62.432,234.944, 68.672,228.672z"/>
<glyph unicode="K" d="M 144,192l 256,0 C 408.832,192, 416,199.168, 416,208C 416,216.832, 408.832,224, 400,224l-256,0 C 135.168,224, 128,216.832, 128,208   C 128,199.168, 135.168,192, 144,192z"/>
<glyph unicode="L" d="M 144,192L 256,192 l0-112 C 256,71.168, 263.168,64, 272,64S 288,71.168, 288,80L 288,192 l 112,0 C 408.832,192, 416,199.168, 416,208   C 416,216.832, 408.832,224, 400,224L 288,224 L 288,336 C 288,344.832, 280.832,352, 272,352S 256,344.832, 256,336L 256,224 L 144,224 C 135.168,224, 128,216.832, 128,208C 128,199.168, 135.168,192, 144,192z"/>
<glyph unicode="M" d="M 160.8,96.8c 6.24-6.24, 16.384-6.24, 22.624,0L 272,185.376l 88.576-88.576c 6.24-6.24, 16.384-6.24, 22.624,0   c 6.24,6.24, 6.24,16.384,0,22.624L 294.624,208l 88.576,88.576c 6.24,6.24, 6.24,16.384,0,22.624c-6.24,6.24-16.384,6.24-22.624,0   L 272,230.624L 183.424,319.2c-6.24,6.24-16.384,6.24-22.624,0c-6.24-6.24-6.24-16.384,0-22.624L 249.376,208l-88.576-88.576   C 154.56,113.184, 154.56,103.040, 160.8,96.8z"/>
<glyph unicode="N" d="M 220.608,70.592c 0.64-0.512, 1.024-1.216, 1.696-1.696c 0.96-0.64, 2.048-0.768, 3.072-1.216   c 1.216-0.576, 2.4-1.12, 3.68-1.472c 1.248-0.32, 2.464-0.48, 3.744-0.576c 1.824-0.192, 3.584-0.192, 5.376,0.064   c 0.736,0.128, 1.44,0.32, 2.176,0.512c 2.208,0.544, 4.256,1.408, 6.272,2.624c 0.352,0.224, 0.64,0.48, 0.992,0.704   c 1.312,0.896, 2.72,1.568, 3.84,2.784c 0.8,0.864, 1.152,1.984, 1.792,2.944c 0.032,0.032, 0.096,0.064, 0.096,0.096l 190.688,305.632   c 6.784,10.336, 3.872,24.224-6.496,31.008s-24.224,3.872-31.008-6.496l-176.128-282.272L 132.992,217.984C 123.904,226.4, 109.76,225.856, 101.344,216.768   C 92.96,207.68, 93.504,193.504, 102.592,185.12l 117.184-114.016C 220,70.88, 220.32,70.816, 220.608,70.592z"/>
<glyph unicode="O" d="M 272,448C 139.456,448, 32,340.544, 32,208S 139.456-32, 272-32S 512,75.456, 512,208S 404.544,448, 272,448z M 272,0   C 157.312,0, 64,93.312, 64,208S 157.312,416, 272,416S 480,322.688, 480,208S 386.688,0, 272,0zM 400,224l-256,0 C 135.168,224, 128,216.832, 128,208C 128,199.168, 135.168,192, 144,192l 256,0 C 408.832,192, 416,199.168, 416,208   C 416,216.832, 408.832,224, 400,224z"/>
<glyph unicode="P" d="M 272,448C 139.456,448, 32,340.544, 32,208S 139.456-32, 272-32S 512,75.456, 512,208S 404.544,448, 272,448z M 272,0   C 157.312,0, 64,93.312, 64,208S 157.312,416, 272,416S 480,322.688, 480,208S 386.688,0, 272,0zM 400,224L 288,224 L 288,336 C 288,344.832, 280.832,352, 272,352S 256,344.832, 256,336L 256,224 L 144,224 C 135.168,224, 128,216.832, 128,208C 128,199.168, 135.168,192, 144,192L 256,192    l0-112 C 256,71.168, 263.168,64, 272,64S 288,71.168, 288,80L 288,192 l 112,0 C 408.832,192, 416,199.168, 416,208C 416,216.832, 408.832,224, 400,224z"/>
<glyph unicode="Q" d="M 272,448C 139.456,448, 32,340.544, 32,208S 139.456-32, 272-32S 512,75.456, 512,208S 404.544,448, 272,448z M 272,0   C 157.312,0, 64,93.312, 64,208S 157.312,416, 272,416S 480,322.688, 480,208S 386.688,0, 272,0zM 360.576,319.2L 272.608,231.232L 193.728,319.2c-6.24,6.24-16.384,6.24-22.624,0c-6.24-6.24-6.24-16.384,0-22.624   l 78.912-87.968l-89.184-89.184c-6.24-6.24-6.24-16.384,0-22.624c 6.24-6.24, 16.384-6.24, 22.624,0l 87.968,87.968l 78.912-87.968   c 6.24-6.24, 16.384-6.24, 22.624,0s 6.24,16.384,0,22.624L 294.016,207.392l 89.184,89.184c 6.24,6.24, 6.24,16.384,0,22.624   C 376.96,325.44, 366.816,325.44, 360.576,319.2z"/>
<glyph unicode="R" d="M 257.344,480c-141.376,0-256-114.624-256-256s 114.624-256, 256-256s 256,114.624, 256,256S 398.72,480, 257.344,480z M 257.344,0c-123.52,0-224,100.48-224,224   s 100.48,224, 224,224s 224-100.48, 224-224S 380.832,0, 257.344,0zM 369.472,325.824c-10.336,6.784-24.224,3.872-31.008-6.496L 230.432,154.24L 178.784,202.048   C 169.696,210.432, 155.52,209.888, 147.104,200.8S 139.264,177.568, 148.352,169.152l 71.392-66.048c 0.256-0.224, 0.576-0.288, 0.832-0.512   c 0.64-0.512, 1.024-1.216, 1.696-1.696c 0.96-0.64, 2.048-0.768, 3.072-1.216c 1.216-0.576, 2.4-1.12, 3.68-1.472   c 1.248-0.32, 2.464-0.48, 3.744-0.576c 1.824-0.192, 3.584-0.192, 5.376,0.064c 0.736,0.128, 1.44,0.32, 2.176,0.512   c 2.208,0.544, 4.256,1.408, 6.272,2.624c 0.352,0.224, 0.64,0.48, 0.992,0.704c 1.312,0.896, 2.72,1.568, 3.84,2.784   c 0.8,0.864, 1.152,1.984, 1.792,2.944c 0.032,0.032, 0.096,0.064, 0.096,0.096l 122.624,187.424C 382.72,305.152, 379.808,319.040, 369.472,325.824z"/>
<glyph unicode="S" d="M 304,480C 189.12,480, 96,386.88, 96,272c0-49.44, 17.312-94.752, 46.112-130.464l-135.584-135.584   c-8.672-8.672-8.672-22.752,0-31.424c 8.672-8.672, 22.752-8.672, 31.424,0l 135.584,135.584C 209.248,81.312, 254.56,64, 304,64   c 114.88,0, 208,93.12, 208,208S 418.88,480, 304,480z M 304,96C 206.944,96, 128,174.944, 128,272S 206.944,448, 304,448S 480,369.056, 480,272S 401.056,96, 304,96zM 400,288l-192,0 C 199.168,288, 192,280.832, 192,272C 192,263.168, 199.168,256, 208,256l 192,0 C 408.832,256, 416,263.168, 416,272   C 416,280.832, 408.832,288, 400,288z"/>
<glyph unicode="T" d="M 304,480C 189.12,480, 96,386.88, 96,272c0-49.44, 17.312-94.752, 46.112-130.464l-135.584-135.584   c-8.672-8.672-8.672-22.752,0-31.424c 8.672-8.672, 22.752-8.672, 31.424,0l 135.584,135.584C 209.248,81.312, 254.56,64, 304,64   c 114.88,0, 208,93.12, 208,208S 418.88,480, 304,480z M 304,96C 206.944,96, 128,174.944, 128,272S 206.944,448, 304,448S 480,369.056, 480,272S 401.056,96, 304,96zM 400,288L 320,288 L 320,368 C 320,376.832, 312.832,384, 304,384C 295.168,384, 288,376.832, 288,368L 288,288 L 208,288 C 199.168,288, 192,280.832, 192,272   C 192,263.168, 199.168,256, 208,256L 288,256 l0-80 C 288,167.168, 295.168,160, 304,160C 312.832,160, 320,167.168, 320,176L 320,256 l 80,0 C 408.832,256, 416,263.168, 416,272   C 416,280.832, 408.832,288, 400,288z"/>
<glyph unicode="U" d="M 304,480C 189.12,480, 96,386.88, 96,272c0-49.44, 17.344-94.816, 46.144-130.528l-137.472-137.472c-8.64-8.64-8.64-22.688,0-31.328   c 8.64-8.64, 22.688-8.64, 31.328,0l 137.472,137.472C 209.184,81.344, 254.56,64, 304,64c 114.88,0, 208,93.12, 208,208S 418.88,480, 304,480z M 304,96   C 206.944,96, 128,174.944, 128,272S 206.944,448, 304,448S 480,369.056, 480,272S 401.056,96, 304,96z"/>
<glyph unicode="V" d="M 416,416L 96,416 C 78.336,416, 64,401.664, 64,384l0-320 c0-17.664, 14.336-32, 32-32l 320,0 c 17.664,0, 32,14.336, 32,32L 448,384 C 448,401.664, 433.664,416, 416,416z    M 416,64L 96,64 L 96,384 l 320,0 L 416,64 z"/>
<glyph unicode="W" d="M 416,416L 96,416 C 78.336,416, 64,401.664, 64,384l0-320 c0-17.664, 14.336-32, 32-32l 320,0 c 17.664,0, 32,14.336, 32,32L 448,384 C 448,401.664, 433.664,416, 416,416z    M 416,64L 96,64 L 96,384 l 320,0 L 416,64 zM 192,128l 128,0 c 17.664,0, 32,14.336, 32,32L 352,288 c0,17.664-14.336,32-32,32L 192,320 C 174.336,320, 160,305.664, 160,288l0-128 C 160,142.336, 174.336,128, 192,128z"/>
<glyph unicode="X" d="M 128,320l0-224 c0-17.664, 14.336-32, 32-32l 224,0 c 17.664,0, 32,14.336, 32,32L 416,320 c0,17.664-14.336,32-32,32L 160,352 C 142.336,352, 128,337.664, 128,320z M 384,96L 160,96    L 160,320 l 224,0 L 384,96 zM 208,192l 128,0 C 344.832,192, 352,199.168, 352,208C 352,216.832, 344.832,224, 336,224l-128,0 C 199.168,224, 192,216.832, 192,208   C 192,199.168, 199.168,192, 208,192z"/>
<glyph unicode="Y" d="M 128,320l0-224 c0-17.664, 14.336-32, 32-32l 224,0 c 17.664,0, 32,14.336, 32,32L 416,320 c0,17.664-14.336,32-32,32L 160,352 C 142.336,352, 128,337.664, 128,320z M 384,96L 160,96    L 160,320 l 224,0 L 384,96 zM 208,192L 256,192 l0-48 C 256,135.168, 263.168,128, 272,128S 288,135.168, 288,144L 288,192 l 48,0 C 344.832,192, 352,199.168, 352,208   C 352,216.832, 344.832,224, 336,224L 288,224 L 288,272 C 288,280.832, 280.832,288, 272,288S 256,280.832, 256,272L 256,224 L 208,224 C 199.168,224, 192,216.832, 192,208C 192,199.168, 199.168,192, 208,192z"/>
<glyph unicode="Z" d="M 416,64L 96,64 L 96,384 l 236.032,0 L 352,416L 96,416 C 78.336,416, 64,401.664, 64,384l0-320 c0-17.664, 14.336-32, 32-32l 320,0 c 17.664,0, 32,14.336, 32,32L 448,275.296 L 416,224L 416,64    zM 469.856,444.352C 466.080,446.816, 461.824,448, 457.632,448c-7.296,0-14.464-3.584-18.752-10.144L 264.928,186.912l-67.296,76.8   C 188.512,272.128, 174.368,271.584, 165.952,262.496S 158.112,239.232, 167.2,230.848l 80.896-92.32c 0.512-0.832, 1.312-1.472, 1.952-2.24l 2.048-2.336   c 0.256-0.224, 0.576-0.288, 0.832-0.512c 0.64-0.512, 1.024-1.216, 1.696-1.696c 1.376-0.896, 2.88-1.472, 4.384-2.016   c 0.352-0.128, 0.64-0.352, 0.992-0.448c 2.24-0.736, 4.576-1.184, 6.88-1.184c 0.096,0, 0.192,0.064, 0.288,0.064   c 6.080-0.032, 12.128,2.208, 16.576,7.008c 0.832,0.896, 1.152,1.984, 1.824,2.976c 0.032,0.032, 0.064,0.064, 0.096,0.096l 190.688,275.104   C 483.104,423.68, 480.224,437.568, 469.856,444.352z"/>
<glyph unicode="[" d="M 256,416C 149.952,416, 64,330.048, 64,224s 85.952-192, 192-192s 192,85.952, 192,192S 362.048,416, 256,416z M 256,64c-88.224,0-160,71.776-160,160s 71.776,160, 160,160   s 160-71.776, 160-160S 344.224,64, 256,64z"/>
<glyph unicode="\" d="M 256,416C 149.952,416, 64,330.048, 64,224s 85.952-192, 192-192s 192,85.952, 192,192S 362.048,416, 256,416z M 256,64c-88.224,0-160,71.776-160,160s 71.776,160, 160,160   s 160-71.776, 160-160S 344.224,64, 256,64zM 160,224A96,96 1260 1 1 352,224A96,96 1260 1 1 160,224z"/>
<glyph unicode="]" d="M 256,480C 114.624,480,0,365.376,0,224s 114.624-256, 256-256s 256,114.624, 256,256S 397.376,480, 256,480z M 256,0c-123.52,0-224,100.48-224,224s 100.48,224, 224,224   s 224-100.48, 224-224S 379.52,0, 256,0zM 320,320L 192,320 C 174.336,320, 160,305.664, 160,288l0-128 c0-17.664, 14.336-32, 32-32l 128,0 c 17.664,0, 32,14.336, 32,32L 352,288 C 352,305.664, 337.664,320, 320,320z"/>
<glyph unicode="^" d="M 320,128c 17.664,0, 32,14.336, 32,32L 352,288 c0,17.664-14.336,32-32,32L 192,320 C 174.336,320, 160,305.664, 160,288l0-128 c0-17.664, 14.336-32, 32-32L 320,128 z"/>
<glyph unicode="_" d="M 256-32c 141.376,0, 256,114.624, 256,256s-114.624,256-256,256S0,365.376,0,224S 114.624-32, 256-32z M 256,448c 123.52,0, 224-100.48, 224-224s-100.48-224-224-224   s-224,100.48-224,224S 132.48,448, 256,448zM 192,128c 17.664,0, 32,14.336, 32,32L 224,288 c0,17.664-14.336,32-32,32S 160,305.664, 160,288l0-128 C 160,142.336, 174.336,128, 192,128zM 320,128c 17.664,0, 32,14.336, 32,32L 352,288 c0,17.664-14.336,32-32,32S 288,305.664, 288,288l0-128 C 288,142.336, 302.336,128, 320,128z"/>
<glyph unicode="`" d="M 192,320C 174.336,320, 160,305.664, 160,288l0-128 c0-17.664, 14.336-32, 32-32s 32,14.336, 32,32L 224,288 C 224,305.664, 209.664,320, 192,320zM 288,160c0-17.664, 14.336-32, 32-32s 32,14.336, 32,32L 352,288 c0,17.664-14.336,32-32,32S 288,305.664, 288,288L 288,160 z"/>
<glyph unicode="a" d="M 112,224l 288,0 C 408.832,224, 416,231.168, 416,240C 416,248.832, 408.832,256, 400,256l-288,0 C 103.168,256, 96,248.832, 96,240   C 96,231.168, 103.168,224, 112,224zM 112,320l 288,0 C 408.832,320, 416,327.168, 416,336C 416,344.832, 408.832,352, 400,352l-288,0 C 103.168,352, 96,344.832, 96,336   C 96,327.168, 103.168,320, 112,320zM 112,128l 288,0 c 8.832,0, 16,7.168, 16,16c0,8.832-7.168,16-16,16l-288,0 C 103.168,160, 96,152.832, 96,144   C 96,135.168, 103.168,128, 112,128z"/>
<glyph unicode="b" d="M 480,448L 64,448 C 46.336,448, 32,433.664, 32,416l0-416 c0-17.664, 14.336-32, 32-32l 416,0 c 17.664,0, 32,14.336, 32,32L 512,416 C 512,433.664, 497.664,448, 480,448z    M 480,0L 64,0 L 64,416 l 416,0 L 480,0 zM 144,192l 256,0 C 408.832,192, 416,199.168, 416,208C 416,216.832, 408.832,224, 400,224l-256,0 C 135.168,224, 128,216.832, 128,208   C 128,199.168, 135.168,192, 144,192zM 144,288l 256,0 C 408.832,288, 416,295.168, 416,304C 416,312.832, 408.832,320, 400,320l-256,0 C 135.168,320, 128,312.832, 128,304   C 128,295.168, 135.168,288, 144,288zM 144,96l 256,0 c 8.832,0, 16,7.168, 16,16c0,8.832-7.168,16-16,16l-256,0 C 135.168,128, 128,120.832, 128,112   C 128,103.168, 135.168,96, 144,96z"/>
<glyph unicode="c" d="M 272,448C 139.456,448, 32,340.544, 32,208S 139.456-32, 272-32S 512,75.456, 512,208S 404.544,448, 272,448z M 272,0   C 157.312,0, 64,93.312, 64,208S 157.312,416, 272,416S 480,322.688, 480,208S 386.688,0, 272,0zM 400,224l-256,0 C 135.168,224, 128,216.832, 128,208C 128,199.168, 135.168,192, 144,192l 256,0 C 408.832,192, 416,199.168, 416,208   C 416,216.832, 408.832,224, 400,224zM 400,320l-256,0 C 135.168,320, 128,312.832, 128,304C 128,295.168, 135.168,288, 144,288l 256,0 C 408.832,288, 416,295.168, 416,304   C 416,312.832, 408.832,320, 400,320zM 400,128l-256,0 C 135.168,128, 128,120.832, 128,112C 128,103.168, 135.168,96, 144,96l 256,0 c 8.832,0, 16,7.168, 16,16   C 416,120.832, 408.832,128, 400,128z"/>
<glyph unicode="d" d="M 176,224l 256,0 C 440.832,224, 448,231.168, 448,240C 448,248.832, 440.832,256, 432,256l-256,0 C 167.168,256, 160,248.832, 160,240   C 160,231.168, 167.168,224, 176,224zM 176,352l 256,0 C 440.832,352, 448,359.168, 448,368C 448,376.832, 440.832,384, 432,384l-256,0 C 167.168,384, 160,376.832, 160,368   C 160,359.168, 167.168,352, 176,352zM 176,96l 256,0 c 8.832,0, 16,7.168, 16,16c0,8.832-7.168,16-16,16l-256,0 C 167.168,128, 160,120.832, 160,112   C 160,103.168, 167.168,96, 176,96zM 64,368A16,16 1260 1 1 96,368A16,16 1260 1 1 64,368zM 64,240A16,16 1260 1 1 96,240A16,16 1260 1 1 64,240zM 64,112A16,16 1260 1 1 96,112A16,16 1260 1 1 64,112z"/>
<glyph unicode="e" d="M 432,256l-256,0 C 167.168,256, 160,248.832, 160,240C 160,231.168, 167.168,224, 176,224l 256,0 C 440.832,224, 448,231.168, 448,240   C 448,248.832, 440.832,256, 432,256zM 432,384l-256,0 C 167.168,384, 160,376.832, 160,368C 160,359.168, 167.168,352, 176,352l 256,0 C 440.832,352, 448,359.168, 448,368   C 448,376.832, 440.832,384, 432,384zM 432,128l-256,0 C 167.168,128, 160,120.832, 160,112C 160,103.168, 167.168,96, 176,96l 256,0 c 8.832,0, 16,7.168, 16,16   C 448,120.832, 440.832,128, 432,128zM 111.36,328.544L 111.36,407.456L 102.24,407.456L 84.992,398.24L 87.072,390.112L 100.8,397.504L 101.024,397.504L 101.024,328.544     zM 85.984,215.232L 77.632,207.104l0-6.56 L 128,200.544 L 128,209.408 L 92.544,209.408 L 92.544,209.632 l 6.304,5.824c 16.64,16.032, 27.2,27.808, 27.2,42.368   c0,11.296-7.168,22.944-24.16,22.944c-9.12,0-16.864-3.392-22.336-8.032l 3.392-7.52c 3.648,3.040, 9.6,6.688, 16.768,6.688   c 11.776,0, 15.648-7.392, 15.648-15.424C 115.264,244.608, 106.144,234.4, 85.984,215.232zM 99.104,81.152c-7.392,0-14.432,3.040-17.472,4.96l-2.912-8.256c 3.872-2.56, 11.648-5.344, 20.512-5.344   c 18.944,0, 28.768,11.040, 28.768,23.68c0,11.040-7.904,18.336-17.6,20.288l0,0.224 c 9.728,3.52, 14.56,10.432, 14.56,18.592   c0,9.6-7.040,18.816-22.592,18.816c-8.512,0-16.512-3.040-20.64-6.080l 2.784-7.776c 3.392,2.432, 9.472,5.216, 15.776,5.216   c 9.824,0, 13.856-5.6, 13.856-11.904c0-9.344-9.824-13.344-17.6-13.344L 90.592,120.224 l0-8 l 5.952,0 c 10.336,0, 20.288-4.736, 20.384-15.776   C 117.088,89.888, 112.832,81.152, 99.104,81.152z"/>
<glyph unicode="f" d="M 432,384L 384,384 c0,17.664-14.336,32-32,32l-32,0 C 302.336,416, 288,401.664, 288,384L 80,384 C 71.168,384, 64,376.832, 64,368C 64,359.168, 71.168,352, 80,352L 288,352    c0-17.664, 14.336-32, 32-32l 32,0 c 17.664,0, 32,14.336, 32,32l 48,0 C 440.832,352, 448,359.168, 448,368C 448,376.832, 440.832,384, 432,384z M 352,352l-32,0 L 320,384 l 32,0 L 352,352 zM 432,256L 224,256 c0,17.664-14.336,32-32,32L 160,288 C 142.336,288, 128,273.664, 128,256L 80,256 C 71.168,256, 64,248.832, 64,240C 64,231.168, 71.168,224, 80,224L 128,224    c0-17.664, 14.336-32, 32-32l 32,0 c 17.664,0, 32,14.336, 32,32l 208,0 C 440.832,224, 448,231.168, 448,240C 448,248.832, 440.832,256, 432,256z M 192,224L 160,224 L 160,256 l 32,0 L 192,224 zM 432,128L 320,128 c0,17.664-14.336,32-32,32L 256,160 c-17.664,0-32-14.336-32-32L 80,128 C 71.168,128, 64,120.832, 64,112   C 64,103.168, 71.168,96, 80,96L 224,96 c0-17.664, 14.336-32, 32-32l 32,0 c 17.664,0, 32,14.336, 32,32l 112,0 c 8.832,0, 16,7.168, 16,16   C 448,120.832, 440.832,128, 432,128z M 288,96L 256,96 l0,32 l 32,0 L 288,96 z"/>
<glyph unicode="g" d="M 160,352L 160,400 C 160,408.832, 152.832,416, 144,416S 128,408.832, 128,400L 128,352 C 110.336,352, 96,337.664, 96,320l0-32 c0-17.664, 14.336-32, 32-32l0-208    C 128,39.168, 135.168,32, 144,32S 160,39.168, 160,48L 160,256 c 17.664,0, 32,14.336, 32,32L 192,320 C 192,337.664, 177.664,352, 160,352z M 128,320l 32,0 l0-32 L 128,288 L 128,320 zM 288,192L 288,400 C 288,408.832, 280.832,416, 272,416S 256,408.832, 256,400L 256,192 c-17.664,0-32-14.336-32-32l0-32 c0-17.664, 14.336-32, 32-32l0-48    C 256,39.168, 263.168,32, 272,32S 288,39.168, 288,48L 288,96 c 17.664,0, 32,14.336, 32,32l0,32 C 320,177.664, 305.664,192, 288,192z M 256,160l 32,0 l0-32 L 256,128 L 256,160 zM 416,288L 416,400 C 416,408.832, 408.832,416, 400,416S 384,408.832, 384,400L 384,288 c-17.664,0-32-14.336-32-32l0-32 c0-17.664, 14.336-32, 32-32l0-144    c0-8.832, 7.168-16, 16-16s 16,7.168, 16,16L 416,192 c 17.664,0, 32,14.336, 32,32L 448,256 C 448,273.664, 433.664,288, 416,288z M 384,256l 32,0 l0-32 l-32,0 L 384,256 z"/>
<glyph unicode="h" d="M 64-32l 384,0 c 17.664,0, 32,14.336, 32,32L 480,448 c0,17.664-14.336,32-32,32L 64,480 C 46.336,480, 32,465.664, 32,448l0-448 C 32-17.664, 46.336-32, 64-32z    M 64,448l 384,0 l0-448 L 64,0 L 64,448 zM 368,384l-128,0 C 231.168,384, 224,376.832, 224,368C 224,359.168, 231.168,352, 240,352l 128,0 C 376.832,352, 384,359.168, 384,368   C 384,376.832, 376.832,384, 368,384zM 368,288l-224,0 C 135.168,288, 128,280.832, 128,272C 128,263.168, 135.168,256, 144,256l 224,0 C 376.832,256, 384,263.168, 384,272   C 384,280.832, 376.832,288, 368,288zM 368,192l-224,0 C 135.168,192, 128,184.832, 128,176C 128,167.168, 135.168,160, 144,160l 224,0 c 8.832,0, 16,7.168, 16,16   C 384,184.832, 376.832,192, 368,192zM 368,96l-224,0 C 135.168,96, 128,88.832, 128,80C 128,71.168, 135.168,64, 144,64l 224,0 c 8.832,0, 16,7.168, 16,16   C 384,88.832, 376.832,96, 368,96z"/>
<glyph unicode="i" d="M 64,32l 32,0 l0-32 c0-17.664, 14.336-32, 32-32l 320,0 c 17.664,0, 32,14.336, 32,32L 480,384 c0,17.664-14.336,32-32,32l-32,0 L 416,448 c0,17.664-14.336,32-32,32L 64,480    C 46.336,480, 32,465.664, 32,448l0-384 C 32,46.336, 46.336,32, 64,32z M 384,64L 64,64 L 64,448 l 320,0 L 384,64 z M 448,384l0-384 L 128,0 l0,32 l 256,0 c 17.664,0, 32,14.336, 32,32L 416,384 L 448,384 zM 160,368C 160,359.168, 167.168,352, 176,352l 160,0 C 344.832,352, 352,359.168, 352,368C 352,376.832, 344.832,384, 336,384l-160,0    C 167.168,384, 160,376.832, 160,368zM 112,256l 224,0 C 344.832,256, 352,263.168, 352,272C 352,280.832, 344.832,288, 336,288l-224,0 C 103.168,288, 96,280.832, 96,272   C 96,263.168, 103.168,256, 112,256zM 112,192l 224,0 C 344.832,192, 352,199.168, 352,208C 352,216.832, 344.832,224, 336,224l-224,0 C 103.168,224, 96,216.832, 96,208   C 96,199.168, 103.168,192, 112,192zM 112,128l 224,0 c 8.832,0, 16,7.168, 16,16c0,8.832-7.168,16-16,16l-224,0 C 103.168,160, 96,152.832, 96,144   C 96,135.168, 103.168,128, 112,128z"/>
<glyph unicode="j" d="M 481.952-1.952L 448.32,99.552L 176.8,371.072L 160,354.272L 108.928,303.2L 380.448,31.68  zM 63.68,348.448L 131.552,416.32l-33.6,33.6c-18.752,18.752-49.12,18.752-67.872,0c-18.752-18.72-18.752-49.152,0-67.872   L 63.68,348.448z"/>
<glyph unicode="k" d="M 329.92,92.512L 416,64L 387.488,150.080L 223.008,314.56L 165.44,256.992  zM 131.552,290.88L 189.12,348.448L 146.752,390.816c-15.904,15.904-41.664,15.904-57.568,0c-15.904-15.904-15.904-41.664,0-57.568   L 131.552,290.88zM 480,480L 32,480 C 14.336,480,0,465.664,0,448l0-448 c0-17.664, 14.336-32, 32-32l 448,0 c 17.664,0, 32,14.336, 32,32L 512,448 C 512,465.664, 497.664,480, 480,480z    M 480,0L 32,0 L 32,448 l 448,0 L 480,0 z"/>
<glyph unicode="l" d="M 338.752,141.248L 310.24,227.328L 145.76,391.808L 88.192,334.24L 252.672,169.76  zM 11.936,468.064c-15.904-15.904-15.904-41.664,0-57.568l 42.368-42.368l 57.568,57.568L 69.504,468.064   C 53.6,483.968, 27.84,483.968, 11.936,468.064zM 480,384L 253.152,384 l 32-32L 480,352 l0-352 L 128,0 L 128,194.848 l-32,32L 96,0 c0-17.664, 14.336-32, 32-32l 352,0 c 17.664,0, 32,14.336, 32,32L 512,352    C 512,369.664, 497.664,384, 480,384z"/>
<glyph unicode="m" d="M 480,384l-144.512,0 C 317.824,384, 297.504,375.008, 288,352c0,0-4.16-29.344-32-32L 32,320 C 14.336,320,0,306.176,0,288.512L0,0    c0-17.664, 14.336-32, 32-32l 448,0 c 17.664,0, 32,14.336, 32,32L 512,256 L 512,288.512 L 512,352 C 512,369.664, 497.664,384, 480,384z M 480,288.512L 480,256 l0-256 L 32,0 L 32,288 l 224,0    c 1.024,0, 2.016,0.064, 3.040,0.16C 289.056,291.008, 307.616,312, 316.192,333.6C 324.512,354.496, 339.008,352, 339.008,352L 480,352 L 480,288.512 z"/>
<glyph unicode="n" d="M 512,320.512L 512,384 c0,17.664-14.336,32-32,32l-160,0 C 302.336,416, 288,401.664, 288,384c0,0-4.16-29.344-32-32L 32,352 C 14.336,352,0,338.176,0,320.512L0,288    l 512,0 L 512,320.512 zM 32-32l 448,0 c 17.664,0, 32,14.336, 32,32L 512,256 L0,256 l0-256 C0-17.664, 14.336-32, 32-32z M 32,224l 448,0 l0-224 L 32,0 L 32,224 z"/>
<glyph unicode="o" d="M 480,384l-112.512,0 C 349.824,384, 329.504,375.008, 320,352c0,0-4.16-29.344-32-32L 64,320 C 46.336,320, 32,306.176, 32,288.512L 32,0    c0-17.664, 14.336-32, 32-32l 416,0 c 17.664,0, 32,14.336, 32,32L 512,256 L 512,288.512 L 512,352 C 512,369.664, 497.664,384, 480,384z M 480,288.512L 480,256 l0-256 L 64,0 L 64,288 l 224,0    c 1.024,0, 2.016,0.064, 3.040,0.16c 30.016,2.848, 48.576,23.872, 57.152,45.472C 356.512,354.496, 371.008,352, 371.008,352L 480,352 L 480,288.512 zM 352,160L 288,160 L 288,224 c0,8.832-7.168,16-16,16S 256,232.832, 256,224l0-64 L 192,160 c-8.832,0-16-7.168-16-16   C 176,135.168, 183.168,128, 192,128l 64,0 l0-64 c0-8.832, 7.168-16, 16-16S 288,55.168, 288,64l0,64 l 64,0 c 8.832,0, 16,7.168, 16,16   C 368,152.832, 360.832,160, 352,160z"/>
<glyph unicode="p" d="M 256,480C 114.624,480,0,365.376,0,224s 114.624-256, 256-256s 256,114.624, 256,256S 397.376,480, 256,480z M 256,0c-123.52,0-224,100.48-224,224s 100.48,224, 224,224   s 224-100.48, 224-224S 379.52,0, 256,0zM 256,288C 238.336,288, 224,273.664, 224,256l0-160 c0-17.664, 14.336-32, 32-32s 32,14.336, 32,32L 288,256 C 288,273.664, 273.664,288, 256,288zM 224,351.488A32,32 1260 1 1 288,351.488A32,32 1260 1 1 224,351.488z"/>
<glyph unicode="q" d="M 371.424,470.624C 365.408,476.64, 357.28,480, 348.768,480L 163.232,480 c-8.48,0-16.64-3.36-22.624-9.376l-131.2-131.232   C 3.36,333.408,0,325.28,0,316.768l0-185.568 c0-8.48, 3.36-16.64, 9.376-22.624l 131.2-131.232C 146.592-28.64, 154.72-32, 163.232-32l 185.568,0    c 8.48,0, 16.64,3.36, 22.624,9.376l 131.2,131.232C 508.64,114.592, 512,122.72, 512,131.232L 512,316.768 c0,8.48-3.36,16.64-9.376,22.624L 371.424,470.624z    M 480,131.232L 348.768,0L 163.232,0 L 32,131.232L 32,316.768 L 163.232,448l 185.568,0 L 480,316.768L 480,131.232 zM 256,384C 238.336,384, 224,369.664, 224,352l0-160 c0-17.664, 14.336-32, 32-32s 32,14.336, 32,32L 288,352 C 288,369.664, 273.664,384, 256,384zM 224,96A32,32 1260 1 1 288,96A32,32 1260 1 1 224,96z"/>
<glyph unicode="r" d="M 256,480C 114.624,480,0,365.376,0,224s 114.624-256, 256-256s 256,114.624, 256,256S 397.376,480, 256,480z M 256,0c-123.52,0-224,100.48-224,224s 100.48,224, 224,224   s 224-100.48, 224-224S 379.52,0, 256,0zM 256,384C 238.336,384, 224,369.664, 224,352l0-160 c0-17.664, 14.336-32, 32-32s 32,14.336, 32,32L 288,352 C 288,369.664, 273.664,384, 256,384zM 224,96.512A32,32 1260 1 1 288,96.512A32,32 1260 1 1 224,96.512z"/>
<glyph unicode="s" d="M 506.24,15.072l-222.016,416C 278.688,441.472, 267.84,448, 256.032,448L 256,448 C 244.192,448, 233.376,441.504, 227.808,431.104l-223.008-416   c-5.312-9.92-5.024-21.888, 0.736-31.552C 11.328-26.080, 21.76-32, 32.992-32l 444.992,0 c 11.232,0, 21.664,5.888, 27.456,15.552   C 511.232-6.816, 511.52,5.152, 506.24,15.072z M 32.992,0L 256,416l 222.016-416L 32.992,0 zM 224,255.488l0-96 c0-17.664, 14.336-32, 32-32s 32,14.336, 32,32l0,96 c0,17.664-14.336,32-32,32S 224,273.184, 224,255.488zM 224,64A32,32 1260 1 1 288,64A32,32 1260 1 1 224,64z"/>
<glyph unicode="t" d="M 256,480C 114.624,480,0,365.376,0,224s 114.624-256, 256-256s 256,114.624, 256,256S 397.376,480, 256,480z M 256,0c-123.52,0-224,100.48-224,224s 100.48,224, 224,224   s 224-100.48, 224-224S 379.52,0, 256,0zM 220.384,63.552A32.96,32.96 1260 1 1 286.304,63.55200000000002A32.96,32.96 1260 1 1 220.384,63.55200000000002zM 253.344,416c-62.048,0-128-45.088-128-128.672c0-17.664, 14.304-32, 32-32s 32,14.336, 32,32c0,44.448, 33.184,64.672, 64,64.672   c 23.904,0, 64-7.008, 64-54.016c0-16.672-4.384-36.128-36.768-53.984C 258.56,231.936, 221.344,200.608, 221.344,160c0-17.664, 14.304-32, 32-32s 32,14.336, 32,32   c0,5.952, 12.672,20.576, 26.080,27.968c 46.368,25.536, 69.92,62.56, 69.92,110.016C 381.344,379.52, 317.056,416, 253.344,416z"/>
<glyph unicode="u" d="M 220.384,63.552A32.96,32.96 1260 1 1 286.304,63.55200000000002A32.96,32.96 1260 1 1 220.384,63.55200000000002zM 311.424,187.968c 46.368,25.536, 69.92,62.56, 69.92,110.016c0,81.504-64.288,118.016-128,118.016c-62.048,0-128-45.088-128-128.672   c0-17.664, 14.304-32, 32-32s 32,14.336, 32,32c0,44.448, 33.184,64.672, 64,64.672c 23.904,0, 64-7.008, 64-54.016c0-16.672-4.384-36.128-36.768-53.984   C 258.56,231.936, 221.344,200.608, 221.344,160c0-17.664, 14.304-32, 32-32s 32,14.336, 32,32C 285.344,165.952, 297.984,180.576, 311.424,187.968z"/>
<glyph unicode="v" d="M 30.368,9.888c 2.624-5.632, 8.288-9.216, 14.496-9.216c 45.92,0, 84.768,11.168, 128.896,37.184   C 195.168,34.464, 237.44,30.272, 256,30.272c 140.096,0, 254.048,93.536, 254.048,208.544S 396.096,447.328, 256,447.328S 1.952,353.824, 1.952,238.816   c0-54.208, 26.144-106.592, 72.16-145.408c-10.432-23.68-24.352-46.016-41.504-66.464C 28.64,22.144, 27.744,15.488, 30.368,9.888z M 33.952,238.816   c0,97.344, 99.616,176.544, 222.048,176.544s 222.048-79.2, 222.048-176.544S 378.432,62.272, 256,62.272c-18.368,0-66.176,4.928-82.336,8.064   c-3.904,0.704-7.968-0.032-11.36-2.048C 132.48,50.048, 106.464,39.616, 78.624,35.2c 12,18.176, 21.984,37.376, 29.76,57.376   c 2.592,6.688, 0.48,14.24-5.248,18.56C 58.496,144.928, 33.952,190.304, 33.952,238.816z"/>
<glyph unicode="w" d="M 446.56,291.36c 2.816-12.672, 4.448-25.696, 4.448-39.072c0-103.296-87.68-189.408-203.136-207.904   c 24.416-9.856, 51.776-15.616, 80.928-15.616c 27.488,0, 53.44,5.056, 76.864,13.856c 29.664-10.112, 62.048-12.736, 88.832-12.736   c-13.92,16.704-23.584,33.088-30.496,47.488C 493.696,103.872, 512,138.976, 512,177.632C 512,223.328, 486.496,264.064, 446.56,291.36zM 23.552,73.312c 2.784-5.28, 8.256-8.576, 14.176-8.576c 0.256,0, 0.544,0, 0.768,0.032   c 16.928,0.8, 50.592,12.032, 86.24,34.656c 19.072-3.36, 61.792-9.696, 76.704-9.696c 112.544,0, 200.672,78.368, 200.672,178.432   c0,98.4-89.984,178.432-200.672,178.432S 0.832,366.592, 0.832,268.192c0-45.792, 20.16-90.048, 55.648-123.168c-7.968-19.392-18.528-37.728-31.424-54.528   C 21.248,85.568, 20.672,78.848, 23.552,73.312z M 32.832,268.192c0,80.736, 75.648,146.432, 168.672,146.432s 168.672-65.696, 168.672-146.432   c0-83.456-72.512-146.432-168.672-146.432c-12.64,0-62.944,7.328-76.768,10.24c-4.224,0.832-8.608,0.064-12.128-2.336   c-13.728-9.088-26.656-15.968-37.92-21.024c 6.112,11.488, 11.392,23.392, 15.808,35.68c 2.272,6.368, 0.32,13.472-4.864,17.76   C 51.584,190.080, 32.832,227.776, 32.832,268.192z"/>
<glyph unicode="x" d="M 32,91.936l 73.312,0 c 5.792-5.76, 139.232-118.080, 139.232-118.080C 251.488-30.368, 257.536-32, 262.816-32   c 0.8,0, 1.6,0.032, 2.368,0.096c 11.84,1.12, 20.288,11.040, 22.816,21.504L 288,458.368 C 285.504,468.864, 277.024,478.784, 265.184,479.904   C 264.416,479.968, 263.648,480, 262.816,480C 257.536,480, 251.488,478.368, 244.544,474.176c0,0-133.44-116.416-139.232-122.176L 32,352 C 14.336,352,0,337.664,0,320l0-4.064 L0,128 l0-4.064    C0,106.24, 14.336,91.936, 32,91.936z M 32,128L 32,315.936 L 32,320 l 73.312,0 c 8.192,0, 16.384,3.424, 22.304,9.056C 133.44,334.592, 205.76,397.856, 256,441.696l0-435.68    c-49.92,42.048-122.24,103.136-128.128,108.576c-5.984,5.984-14.112,9.312-22.592,9.312L 32,123.904 L 32,128 zM 506.272,306.848c-7.616,7.616-20,7.616-27.616,0l-55.232-55.232l-55.232,55.232   c-7.616,7.616-20,7.616-27.616,0c-7.616-7.616-7.616-20,0-27.616L 395.808,224l-55.232-55.232c-7.616-7.616-7.616-20,0-27.616   c 7.616-7.616, 20-7.616, 27.616,0l 55.232,55.232l 55.232-55.232c 7.616-7.616, 20-7.616, 27.616,0c 7.616,7.616, 7.616,20,0,27.616   L 451.040,224l 55.232,55.232C 513.92,286.848, 513.92,299.232, 506.272,306.848z"/>
<glyph unicode="y" d="M 326.816,480c-5.28,0-11.328-1.632-18.272-5.824c0,0-133.44-116.416-139.232-122.176L 96,352 C 78.336,352, 64,337.664, 64,320l0-4.064 L 64,128    l0-4.064 c0-17.664, 14.336-32, 32-32l 73.312,0 c 5.792-5.76, 139.232-118.080, 139.232-118.080C 315.488-30.368, 321.536-32, 326.816-32   c 0.8,0, 1.6,0.032, 2.368,0.096c 11.84,1.12, 20.288,11.040, 22.816,21.504L 352,458.368 c-2.496,10.496-10.976,20.416-22.816,21.504   C 328.416,479.968, 327.648,480, 326.816,480z M 320,6.016c-49.92,42.048-122.24,103.136-128.128,108.576c-5.984,5.984-14.112,9.312-22.592,9.312L 96,123.904 L 96,128 L 96,315.936    L 96,320 l 73.312,0 c 8.192,0, 16.384,3.424, 22.304,9.056C 197.44,334.592, 269.76,397.856, 320,441.696L 320,6.016 zM 401.312,168.096c-7.904-4-11.072-13.6-7.104-21.504c 2.816-5.568, 8.448-8.8, 14.272-8.8   c 2.432,0, 4.864,0.544, 7.2,1.696C 448.032,155.808, 468.128,188.16, 468.128,224s-20.096,68.192-52.448,84.512   c-7.904,4-17.504,0.8-21.472-7.104c-3.968-7.904-0.8-17.504, 7.104-21.504C 422.784,269.088, 436.128,247.68, 436.128,224   S 422.784,178.912, 401.312,168.096z"/>
<glyph unicode="z" d="M 32,91.936l 73.312,0 c 5.792-5.76, 139.232-118.080, 139.232-118.080C 251.488-30.368, 257.536-32, 262.816-32   c 0.8,0, 1.6,0.032, 2.368,0.096c 11.84,1.12, 20.288,11.040, 22.816,21.504L 288,458.368 C 285.504,468.864, 277.024,478.784, 265.184,479.904   C 264.416,479.968, 263.648,480, 262.816,480C 257.536,480, 251.488,478.368, 244.544,474.176c0,0-133.44-116.416-139.232-122.176L 32,352 C 14.336,352,0,337.664,0,320l0-4.064 L0,128 l0-4.064    C0,106.24, 14.336,91.936, 32,91.936z M 32,128L 32,315.936 L 32,320 l 73.312,0 c 8.192,0, 16.384,3.424, 22.304,9.056C 133.44,334.592, 205.76,397.856, 256,441.696l0-435.68    c-49.92,42.048-122.24,103.136-128.128,108.576c-5.984,5.984-14.112,9.312-22.592,9.312L 32,123.904 L 32,128 zM 337.312,168.096c-7.904-4-11.072-13.6-7.104-21.504c 2.816-5.568, 8.448-8.8, 14.272-8.8   c 2.432,0, 4.864,0.544, 7.2,1.696C 384.032,155.808, 404.128,188.16, 404.128,224s-20.096,68.192-52.448,84.512   c-7.904,4-17.504,0.8-21.472-7.104c-3.968-7.904-0.8-17.504, 7.104-21.504C 358.784,269.088, 372.128,247.68, 372.128,224   S 358.784,178.912, 337.312,168.096zM 315.296,40.352c 1.504-7.648, 8.192-12.928, 15.68-12.928c 1.024,0, 2.048,0.096, 3.104,0.288   C 427.904,46.016, 496,128.576, 496,224s-68.096,177.984-161.952,196.288C 325.536,422.016, 316.96,416.32, 315.296,407.648   C 313.6,398.976, 319.264,390.56, 327.936,388.864C 406.784,373.504, 464,304.16, 464,224s-57.216-149.504-136.064-164.864   C 319.264,57.44, 313.6,49.024, 315.296,40.352z"/>
<glyph unicode="{" d="M 127.968,270.112c0-27.040, 21.12-48.96, 47.136-48.96c 8.352,0, 16.064,2.432, 22.88,6.4   c-2.336-26.176-15.52-64.352-63.84-103.264c-6.752-5.472-8-15.584-2.752-22.592c 3.072-4.096, 7.648-6.24, 12.256-6.24   c 3.328,0, 6.656,1.088, 9.504,3.392c 59.296,47.84, 74.112,96.992, 76.096,129.824C 232.64,270.656, 219.904,292.736, 208.256,304.256   C 207.2,305.376, 206.208,306.592, 205.024,307.584C 202.24,309.952, 199.744,311.616, 197.568,312.864C 197.472,312.928, 197.408,313.024, 197.312,313.056   c-0.16,0.096-0.32,0.128-0.48,0.192C 193.664,315.008, 191.392,315.84, 191.392,315.84l 0.16-0.384C 186.4,317.568, 180.992,319.072, 175.104,319.072   C 149.056,319.072, 127.968,297.152, 127.968,270.112zM 283.104,270.112c0-27.040, 21.088-48.96, 47.136-48.96c 8.352,0, 16.064,2.432, 22.88,6.4   c-2.336-26.176-15.52-64.352-63.84-103.264c-6.784-5.472-8-15.584-2.752-22.592c 3.072-4.096, 7.648-6.24, 12.256-6.24   c 3.328,0, 6.656,1.088, 9.504,3.392c 59.296,47.84, 74.112,96.992, 76.096,129.824c 3.392,41.984-9.376,64.064-20.992,75.584   c-1.088,1.12-2.080,2.336-3.264,3.328c-2.784,2.368-5.28,4.032-7.456,5.28c-0.096,0.064-0.16,0.128-0.256,0.192   c-0.16,0.096-0.32,0.128-0.48,0.192c-3.168,1.728-5.44,2.592-5.44,2.592l 0.16-0.384c-5.152,2.112-10.592,3.616-16.448,3.616   C 304.192,319.072, 283.104,297.152, 283.104,270.112z"/>
<glyph unicode="|" d="M 256,480C 114.624,480,0,365.376,0,224s 114.624-256, 256-256s 256,114.624, 256,256S 397.376,480, 256,480z M 256,0c-123.52,0-224,100.48-224,224s 100.48,224, 224,224   s 224-100.48, 224-224S 379.52,0, 256,0zM 205.024,307.584C 202.24,309.952, 199.744,311.616, 197.568,312.864C 197.472,312.928, 197.408,313.024, 197.312,313.056   c-0.16,0.096-0.32,0.128-0.48,0.192C 193.664,315.008, 191.392,315.84, 191.392,315.84l 0.16-0.384C 186.4,317.568, 180.992,319.072, 175.104,319.072   c-26.048,0-47.136-21.92-47.136-48.96c0-27.040, 21.12-48.96, 47.136-48.96c 8.352,0, 16.064,2.432, 22.88,6.4   c-2.336-26.176-15.52-64.352-63.84-103.264c-6.752-5.472-8-15.584-2.752-22.592c 3.072-4.096, 7.648-6.24, 12.256-6.24   c 3.328,0, 6.656,1.088, 9.504,3.392c 59.296,47.84, 74.112,96.992, 76.096,129.824C 232.64,270.656, 219.904,292.736, 208.256,304.256   C 207.2,305.376, 206.208,306.592, 205.024,307.584zM 360.16,307.584c-2.784,2.368-5.28,4.032-7.456,5.28c-0.096,0.064-0.16,0.128-0.256,0.192   c-0.16,0.096-0.32,0.128-0.48,0.192c-3.168,1.728-5.44,2.592-5.44,2.592l 0.16-0.384c-5.152,2.112-10.592,3.616-16.448,3.616   c-26.048,0-47.136-21.92-47.136-48.96c0-27.040, 21.088-48.96, 47.136-48.96c 8.352,0, 16.064,2.432, 22.88,6.4   c-2.336-26.176-15.52-64.352-63.84-103.264c-6.784-5.472-8-15.584-2.752-22.592c 3.072-4.096, 7.648-6.24, 12.256-6.24   c 3.328,0, 6.656,1.088, 9.504,3.392c 59.296,47.84, 74.112,96.992, 76.096,129.824c 3.392,41.984-9.376,64.064-20.992,75.584   C 362.336,305.376, 361.344,306.592, 360.16,307.584z"/>
<glyph unicode="}" d="M 273.056,445.856c-61.152,0-122.304-23.328-168.96-69.984c-93.312-93.312-93.312-244.608,0-337.888   C 150.784-8.672, 211.904-32, 273.056-32s 122.304,23.328, 168.96,69.984c 93.312,93.312, 93.312,244.608,0,337.888C 395.36,422.528, 334.208,445.856, 273.056,445.856z    M 419.392,60.608C 380.32,21.536, 328.352,0, 273.056,0c-55.264,0-107.232,21.536-146.336,60.608c-39.072,39.072-60.608,91.040-60.608,146.336   s 21.536,107.232, 60.608,146.336c 39.072,39.072, 91.040,60.608, 146.336,60.608c 55.264,0, 107.232-21.536, 146.336-60.608S 480,262.208, 480,206.944   S 458.464,99.68, 419.392,60.608zM 368,224L 288,224 L 288,336.224 c0,8.832-7.168,16-16,16S 256,345.056, 256,336.224l0-128.128 c0,0,0-0.032,0-0.032L 256,208   C 256,199.168, 263.168,192, 272,192l 96,0 C 376.832,192, 384,199.168, 384,208C 384,216.832, 376.832,224, 368,224z"/>
<glyph unicode="~" d="M 256,480C 167.648,480, 96,407.264, 96,317.536L 96,288 L 64,288 C 46.336,288, 32,273.664, 32,256l0-256 c0-17.664, 14.336-32, 32-32l 384,0 c 17.664,0, 32,14.336, 32,32L 480,256    c0,17.664-14.336,32-32,32l-32,0 L 416,317.536 C 416,407.264, 344.352,480, 256,480z M 128,317.536C 128,389.472, 185.408,448, 256,448s 128-58.528, 128-130.464L 384,288 L 128,288 L 128,317.536 z M 448,0L 64,0 L 64,256 l 384,0 L 448,0 z   M 320,128c0,35.36-28.64,64-64,64s-64-28.64-64-64s 28.64-64, 64-64S 320,92.64, 320,128z M 256,96c-17.632,0-32,14.368-32,32   s 14.368,32, 32,32s 32-14.368, 32-32S 273.632,96, 256,96z"/>
<glyph unicode="" d="M 480,0L 480,256 c0,17.664-14.336,32-32,32L 127.84,288 L 128,301.568C 128,387.776, 181.248,448, 257.536,448c 55.84,0, 105.6-32.096, 129.888-83.776   c 3.744-8, 13.248-11.424, 21.28-7.648c 8,3.744, 11.424,13.28, 7.648,21.28C 386.752,440.832, 325.92,480, 257.536,480C 163.936,480, 96,404.96, 96,301.76   L 95.84,288L 64,288 C 46.336,288, 32,273.664, 32,256l0-256 c0-17.664, 14.336-32, 32-32l 384,0 C 465.664-32, 480-17.664, 480,0z M 64,256l 384,0 l0-256 L 64,0 L 64,256 zM 256,192c-35.36,0-64-28.64-64-64s 28.64-64, 64-64s 64,28.64, 64,64S 291.36,192, 256,192z M 256,96c-17.632,0-32,14.368-32,32s 14.368,32, 32,32   s 32-14.368, 32-32S 273.632,96, 256,96z"/>
<glyph unicode="" d="M 176,80c0,9.504-2.048,18.688-6.080,27.232C 159.424,129.568, 136.672,144, 112,144c-35.296,0-64-28.704-64-64   c0-6.304, 1.184-12.256, 2.88-18.016c 10.72-17.664, 25.44-32.384, 43.104-43.104c 5.76-1.696, 11.712-2.88, 18.016-2.88   C 147.296,16, 176,44.704, 176,80z M 112,112c 12.352,0, 23.712-7.232, 28.992-18.4C 142.976,89.344, 144,84.768, 144,80   c0-17.632-14.368-32-32-32s-32,14.368-32,32S 94.368,112, 112,112zM 496,480l-69.248,0 c-3.776,0-7.424-1.344-10.336-3.776L 189.856,284.896C 179.424,286.976, 169.6,288, 160,288c-88.224,0-160-71.776-160-160   s 71.776-160, 160-160s 160,71.776, 160,160c0,16.832-2.688,33.472-8,49.6l 48.704,31.648c 4.544,2.944, 7.296,8, 7.296,13.408L 368,280.8 l 60.832,3.2   c 7.936,0.416, 14.336,6.592, 15.072,14.496l 5.824,61.632l 53.152,25.408C 508.48,388.224, 512,393.856, 512,400l0,64 C 512,472.832, 504.832,480, 496,480z    M 480,410.080l-52.224-24.96c-5.056-2.432-8.512-7.328-9.024-12.928l-5.376-56.928L 351.168,312C 342.656,311.52, 336,304.512, 336,296l0-64.64    L 283.776,197.408C 277.28,193.184, 274.72,184.896, 277.76,177.76C 284.576,161.728, 288,144.992, 288,128c0-70.592-57.408-128-128-128c-24.224,0-46.656,7.136-66.016,18.88   c-17.664,10.72-32.384,25.44-43.104,43.104C 39.136,81.344, 32,103.776, 32,128c0,70.592, 57.408,128, 128,128c 9.44,0, 19.36-1.312, 30.336-3.968   c 4.96-1.216, 10.208,0, 14.112,3.328L 432.608,448L 480,448 L 480,410.080 z"/>
<glyph unicode="" d="M 416,224c-1.12,0-2.176-0.288-3.264-0.32C 414.88,234.112, 416,244.928, 416,256c0,88.352-71.648,160-160,160S 96,344.352, 96,256   c0-0.544, 0.16-1.056, 0.16-1.6C 41.888,246.656,0,200.416,0,144c0-56.384, 41.792-102.56, 96-110.4L 96,32 l 320,0 c 53.024,0, 96,42.976, 96,96S 469.024,224, 416,224z    M 416,64L 106.048,64 c-1.76,0.576-3.584,1.024-5.472,1.28C 61.472,70.912, 32,104.768, 32,144c0,39.296, 29.536,73.12, 68.672,78.72   c 15.904,2.272, 27.648,15.968, 27.488,32c0,0.96-0.064,1.92-0.16,2.848C 128.864,327.456, 185.952,384, 256,384c 70.592,0, 128-57.408, 128-128   c0-8.704-0.896-17.408-2.624-25.888c-1.984-9.6, 0.576-19.584, 6.912-27.072c 6.080-7.2, 15.040-11.328, 24.448-11.328   c 0.384,0, 0.736,0, 1.12,0.032C 414.56,191.712, 416.064,191.84, 417.312,192C 452,191.296, 480,162.848, 480,128C 480,92.704, 451.296,64, 416,64z"/>
<glyph unicode="" d="M 416.832,224.032c-1.376,0-2.72,0-4.032-0.032C 414.912,234.528, 416,245.28, 416,256c0,88.224-71.776,160-160,160   C 167.84,416, 96,344.928, 95.904,257.632c0-0.032, 0.256-3.232, 0.256-3.232l0,0 C 41.344,246.56,0,199.104,0,144c0-55.872, 40.256-103.936, 96-112l 80,0    C 184.832,32, 192,39.168, 192,48S 184.832,64, 176,64l-77.664-0.16C 61.152,69.312, 32,104.544, 32,144c0,39.296, 29.504,73.12, 68.672,78.72l 13.76,1.984   c 7.872,1.12, 13.728,7.872, 13.728,15.84L 127.904,257.568C 128,327.296, 185.44,384, 256,384c 70.592,0, 128-57.408, 128-128c0-8.672-0.864-17.408-2.624-25.888   l-4.224-20.352c-1.056-5.088, 0.448-10.336, 3.968-14.144c 3.52-3.776, 8.576-5.728, 13.824-4.928c 0.352,0.032, 10.368,1.344, 21.888,1.344   C 451.68,192.032, 480,163.328, 480,128c0-35.296-28.704-64-64-64L 304,64 c-44.8,0-47.84,26.848-48,32L 256,202.176 l 37.856-37.824   c 6.24-6.24, 16.384-6.24, 22.624,0c 6.24,6.24, 6.24,16.384,0,22.624L 252.096,251.328C 248.96,254.464, 244.832,256, 240.704,256   C 240.448,256, 240.256,256.128, 240,256.128c-4.608,0-8.672-1.984-11.584-5.088L 163.968,186.656c-6.24-6.24-6.24-16.384,0-22.624   c 6.24-6.24, 16.384-6.24, 22.624,0L 224,201.408L 224,96 c0-22.112, 16.704-64, 80-64L 416,32 c 52.928,0, 96,43.072, 96,96S 469.312,224.032, 416.832,224.032z"/>
<glyph unicode="" d="M 418.656,224c 29.888,68.64, 11.456,112.288-3.552,133.312c-22.784,31.904-64.288,49.408-100.736,42.4   C 251.008,387.616, 224,344.672, 224,256l0-74.048 L 186.944,219.008c-6.24,6.24-16.384,6.24-22.624,0s-6.24-16.384,0-22.624l 64.384-64.352   c 3.232-3.232, 7.488-4.704, 11.712-4.608c 4.224-0.096, 8.48,1.376, 11.712,4.608l 64.704,64.672c 6.24,6.24, 6.24,16.384,0,22.624   s-16.384,6.24-22.624,0L 256,181.152L 256,256 c0,92.288, 31.776,106.048, 64.32,112.288c 20.896,3.84, 51.136-4.928, 68.704-29.568   c 21.504-30.048, 17.376-74.624-11.616-125.44c-3.072-5.408-2.752-12.096, 0.832-17.152s 9.888-7.616, 15.872-6.528   c 3.872,0.672, 15.424,2.432, 22.72,2.432C 451.68,192.032, 480,163.328, 480,128c0-35.296-28.704-64-64-64l-317.664-0.192C 61.152,69.312, 32,104.544, 32,144   c0,39.296, 29.504,73.12, 68.672,78.72l 13.76,1.984c 7.872,1.12, 13.728,7.872, 13.728,15.84L 127.904,257.568C 128,314.88, 163.328,361.984, 212,369.568   C 220.704,370.944, 226.688,379.104, 225.344,387.84C 223.968,396.576, 216,402.496, 207.040,401.184C 142.72,391.168, 96,330.784, 95.904,257.632   c0-0.032, 0.256-3.232, 0.256-3.232l0,0 C 41.344,246.56,0,199.104,0,144c0-55.872, 40.256-103.936, 96-112l 320,0 c 52.928,0, 96,43.072, 96,96   C 512,180.352, 470.272,223.040, 418.656,224z"/>
<glyph unicode="" d="M 275.648,292.992A44.512,44.512 1260 1 1 364.672,292.99199999999996A44.512,44.512 1260 1 1 275.648,292.99199999999996zM 416,32L 448,32L 448,64L 448,128L 448,224L 320,128L 160,256L 64,160L 64,128L 64,64L 64,32L 96,32  zM 480,416L 32,416 C 14.336,416,0,401.664,0,384l0-384 c0-17.664, 14.336-32, 32-32l 448,0 c 17.664,0, 32,14.336, 32,32L 512,384 C 512,401.664, 497.664,416, 480,416z    M 480,0L 32,0 L 32,384 l 448,0 L 480,0 z"/>
<glyph unicode="" d="M 480,384l-32,0 L 448,448 c0,17.664-14.336,32-32,32L 32,480 C 14.336,480,0,465.664,0,448l0-352 c0-17.664, 14.336-32, 32-32l 32,0 l0-64 c0-17.664, 14.336-32, 32-32l 384,0    c 17.664,0, 32,14.336, 32,32L 512,352 C 512,369.664, 497.664,384, 480,384z M 32,96L 32,448 l 384,0 l0-352 L 32,96 z M 480,0L 96,0 l0,64 l 32,0 l0-32 l 32,0 l 256,0 l 32,0 l0,32 l0,32 L 448,192 L 448,352 l 32,0 L 480,0 zM 236.64,348.992A44.512,44.512 1260 1 1 325.664,348.99199999999996A44.512,44.512 1260 1 1 236.64,348.99199999999996zM 160,320L 64,256L 64,192L 64,160L 64,128L 96,128L 352,128L 384,128L 384,160L 384,192L 384,288L 256,224  z"/>
<glyph unicode="" d="M 256,480C 150.144,480, 64,393.856, 64,288c0-61.888, 30.080-120.32, 80.512-156.32c 0.768-0.544, 1.568-1.056, 2.368-1.536   c 11.712-6.88, 12.864-29.056, 12.608-33.12c-0.032-0.672-0.064-1.344-0.064-1.984L 159.424,32 c0-12.032, 6.72-23.008, 17.44-28.48l 64.576-32.992   c 4.576-2.336, 9.568-3.52, 14.56-3.52c 4.96,0, 9.888,1.152, 14.432,3.424l 65.344,32.992c 10.784,5.44, 17.568,16.48, 17.568,28.576l0,62.656    c0,31.584, 19.296,42.016, 19.488,42.112c 2.56,1.184, 4.928,2.72, 7.072,4.544C 423.168,177.92, 448,231.36, 448,288C 448,393.856, 361.856,480, 256,480z    M 191.424,95.008c0,0,0,0.64, 0.032,0.992l 129.984,0 c0-0.48-0.128-0.832-0.128-1.344c0-12.576,0-22.528,0-30.656L 191.424,64 L 191.424,95.008 z M 256-0.992   L 191.456,32l 129.888,0 L 256-0.992z M 359.232,165.76c0,0-21.44-10.080-32.064-37.76L 186.304,128 c-3.968,11.072-10.848,22.464-23.2,29.728   C 122.496,186.72, 96,234.272, 96,288c0,88.352, 71.648,160, 160,160s 160-71.648, 160-160C 416,238.976, 393.952,195.104, 359.232,165.76zM 272,416C 263.168,416, 256,408.832, 256,400S 263.168,384, 272,384C 308,384, 352,351.264, 352,302.496c0-8.832, 7.168-16, 16-16   s 16,7.168, 16,16C 384,375.488, 327.008,416, 272,416z"/>
<glyph unicode="" d="M 480,352L 288.672,352 L 224,352 L 32,352 C 14.336,352,0,337.664,0,320l0-96 l 32,0 l0-224 c0-17.664, 14.336-32, 32-32l 160,0 l 64.672,0 L 448-32 c 17.664,0, 32,14.336, 32,32L 480,224 l 32,0 L 512,320    C 512,337.664, 497.664,352, 480,352z M 32,320l 192,0 l0-64 L 32,256 L 32,320 z M 64,0L 64,224 l 160,0 l0-224 L 64,0 z M 448,0L 288.672,0 L 288.672,224 L 448,224 L 448,0 z M 480,256L 288.672,256 L 288.672,320 L 480,320 L 480,256 zM 256,384c0,0.064-0.032,0.192-0.032,0.256l 0.096,0 C 256.032,384.192, 256,384.064, 256,384c0,0, 83.808,0, 128,0   c 44.192,0, 64,21.504, 64,48S 428.192,480, 384,480c-41.376,0-73.952-18.624-96-40.224C 278.336,445.504, 267.168,448.992, 255.072,448.992   c-11.584,0-22.304-3.264-31.712-8.576C 201.344,461.76, 168.96,480, 128,480C 83.808,480, 64,458.496, 64,432S 83.808,384, 128,384C 172.192,384, 256,384, 256,384z M 416,432   C 416,418.784, 398.592,416, 384,416L 311.328,416 C 311.072,416.448, 310.848,416.928, 310.592,417.344C 326.848,433.152, 351.488,448, 384,448C 398.592,448, 416,445.216, 416,432z M 96,432   C 96,445.216, 113.408,448, 128,448c 31.808,0, 55.936-14.24, 72.192-29.504C 199.68,417.696, 199.296,416.832, 198.816,416L 128,416 C 113.408,416, 96,418.784, 96,432z"/>
<glyph unicode="" d="M 25.984,195.488L 64,225.888L 64,0 c0-17.664, 14.336-32, 32-32l 96,0 c 17.664,0, 32,14.336, 32,32l0,128 l 64,0 l0-128 c0-17.664, 14.336-32, 32-32l 96,0    c 17.664,0, 32,14.336, 32,32L 448,225.888 l 38.016-30.4C 488.96,193.152, 492.48,192, 496,192c 4.704,0, 9.344,2.048, 12.512,6.016   c 5.504,6.912, 4.384,16.96-2.496,22.496l-240,192c-5.856,4.672-14.144,4.672-20,0L 160,343.712L 160,384 c0,17.664-14.336,32-32,32S 96,401.664, 96,384l0-91.488    l-89.984-72c-6.88-5.536-8-15.584-2.496-22.496C 9.024,191.104, 19.072,189.984, 25.984,195.488z M 256,379.52l 160-128L 416,0 l-96,0 l0,160 L 192,160 l0-160 L 96,0 L 96,251.488 L 256,379.52z   "/>
<glyph unicode="" d="M 40.704,85.504c 7.68-11.936, 23.808-26.144, 57.088-26.144c 20.928,0, 47.712,6.112, 77.536,16.768   C 188.224,19.296, 211.936-32, 256-32c 44.8,0, 68.608,53.056, 81.344,111.072c 29.888-10.112, 56.768-15.936, 77.792-15.936c 35.2,0, 51.712,14.976, 59.392,27.52   c 24.832,40.704-13.92,92.384-60.704,135.104c 8.64,8.32, 16.768,16.64, 23.904,24.736c 40.448,46.048, 51.744,83.712, 33.568,112   c-7.68,11.936-23.808,26.144-57.088,26.144l0,0 c-20.928,0-47.712-6.112-77.536-16.768C 323.776,428.704, 300.064,480, 256,480C 211.2,480, 187.392,426.944, 174.656,368.928   C 144.768,379.072, 117.888,384.864, 96.864,384.864l0,0 c-35.2,0-51.744-14.976-59.392-27.52C 12.64,316.64, 51.392,264.96, 98.176,222.24   c-8.64-8.352-16.768-16.64-23.904-24.736C 33.824,151.456, 22.528,113.76, 40.704,85.504z M 256,0c-20.704,0-39.072,34.592-50.784,88   c 16.832,7.264, 34.24,15.744, 52.064,25.44c 17.088-8.768, 33.792-16.416, 49.984-23.072C 295.616,35.616, 277.024,0, 256,0z M 192,224   c0,11.744, 0.352,23.2, 0.832,34.464c 9.216,6.528, 18.656,12.992, 28.544,19.36C 232.736,285.12, 243.968,291.84, 255.104,298.24   c 11.296-6.144, 22.688-12.576, 34.208-19.584c 10.304-6.304, 20.192-12.736, 29.792-19.2C 319.648,247.872, 320,236.096, 320,224   c0-11.744-0.352-23.2-0.832-34.464C 309.952,183.008, 300.512,176.544, 290.624,170.176C 279.264,162.88, 268.032,156.16, 256.896,149.76   c-11.296,6.144-22.688,12.576-34.208,19.584c-10.304,6.304-20.192,12.736-29.792,19.2C 192.352,200.128, 192,211.904, 192,224z M 160.16,211.968   C 155.456,215.552, 150.848,219.136, 146.432,222.688C 150.848,226.432, 155.424,230.176, 160.096,233.92C 160.032,229.632, 160,226.016, 160,224   C 160,221.664, 160.064,217.248, 160.16,211.968z M 195.744,299.072C 196.672,308.16, 197.76,316.96, 199.008,325.472C 206.304,322.368, 213.76,318.944, 221.376,315.36   c-5.76-3.52-11.52-6.88-17.312-10.592C 201.184,302.88, 198.592,300.928, 195.744,299.072z M 288.48,316.16c 8.256,4.16, 16.32,8.032, 24.224,11.584   C 314.048,318.688, 315.2,309.248, 316.192,299.552c-4.448,2.848-8.192,5.184-10.176,6.4C 300.16,309.536, 294.304,312.768, 288.48,316.16z M 351.84,236.032   c 4.704-3.584, 9.312-7.168, 13.728-10.72c-4.416-3.744-8.992-7.456-13.696-11.232C 351.968,218.368, 352,221.984, 352,224   C 352,226.336, 351.936,230.752, 351.84,236.032z M 316.256,148.928c-0.928-9.088-1.984-17.92-3.232-26.4c-7.296,3.104-14.784,6.528-22.368,10.112   c 5.76,3.52, 11.52,6.88, 17.312,10.592C 310.816,145.12, 313.408,147.072, 316.256,148.928z M 205.984,142.048c 5.856-3.584, 11.68-6.816, 17.536-10.208   c-8.256-4.16-16.32-8.032-24.224-11.584c-1.344,9.024-2.496,18.464-3.488,28.192C 200.256,145.632, 204,143.264, 205.984,142.048z    M 447.2,107.328c-5.056-8.256-16.256-12.192-32.064-12.192c-18.464,0-43.392,5.632-71.808,15.616c 3.392,21.952, 5.504,43.392, 6.752,61.696   c 14.304,10.56, 27.52,21.248, 40.032,32C 435.264,163.456, 458.752,126.24, 447.2,107.328z M 414.208,356.64c 14.656,0, 25.184-3.68, 30.176-11.456   c 12-18.656-10.656-56.448-54.88-98.528c-13.76,11.2-27.328,21.44-39.552,30.112c-1.312,18.88-3.488,40.896-7.104,63.392   C 371.232,350.688, 396.032,356.64, 414.208,356.64z M 256,448c 20.704,0, 39.072-34.592, 50.784-88c-16.832-7.264-34.24-15.744-52.064-25.44   C 237.6,343.328, 220.896,351.008, 204.736,357.632C 216.384,412.384, 234.976,448, 256,448z M 64.8,340.672c 5.056,8.256, 16.256,12.192, 32.064,12.192   c 18.464,0, 43.392-5.632, 71.808-15.616C 165.248,315.296, 163.168,293.888, 161.92,275.552c-14.304-10.56-27.52-21.248-40.032-32   C 76.736,284.544, 53.248,321.76, 64.8,340.672z M 162.016,171.264c 1.312-18.88, 3.488-40.896, 7.104-63.392c-28.352-10.528-53.152-16.48-71.328-16.48   c-14.656,0-25.184,3.68-30.176,11.456c-12,18.656, 10.656,56.448, 54.88,98.528C 136.224,190.176, 149.792,179.904, 162.016,171.264z"/>
<glyph unicode="" d="M 384-32c 17.664,0, 32,14.336, 32,32L 416,448 c0,17.664-14.336,32-32,32L 160,480 C 142.336,480, 128,465.664, 128,448l0-448 c0-17.664, 14.336-32, 32-32L 384-32 z    M 256,17.984c0,9.952, 8.064,17.984, 17.984,17.984s 17.984-8.064, 17.984-17.984S 283.936,0, 273.984,0S 256,8.064, 256,17.984z M 336,448   C 344.832,448, 352,440.832, 352,432C 352,423.168, 344.832,416, 336,416l-32,0 C 295.168,416, 288,423.168, 288,432C 288,440.832, 295.168,448, 304,448L 336,448 z M 256,432   C 256,423.168, 248.832,416, 240,416S 224,423.168, 224,432C 224,440.832, 231.168,448, 240,448S 256,440.832, 256,432z M 160,384l 224,0 l0-320 L 160,64 L 160,384 z"/>
<glyph unicode="" d="M 416-32c 17.664,0, 32,14.336, 32,32L 448,448 c0,17.664-14.336,32-32,32L 96,480 C 78.336,480, 64,465.664, 64,448l0-448 c0-17.664, 14.336-32, 32-32L 416-32 z    M 256-17.984c-9.952,0-17.984,8.064-17.984,17.984S 246.048,17.984, 256,17.984S 273.984,9.952, 273.984,0S 265.952-17.984, 256-17.984z M 128,416l 256,0 l0-384 L 128,32 L 128,416 z"/>
<glyph unicode="" d="M 495.488,96L 480,96 L 480,384 c0,17.664-14.336,32-32,32L 64,416 C 46.336,416, 32,401.664, 32,384l0-288 L 16.512,96 C 7.392,96,0,88.832,0,80   C0,71.168, 7.392,64, 16.512,64L 64,64 l 384,0 l 47.488,0 C 504.608,64, 512,71.168, 512,80C 512,88.832, 504.608,96, 495.488,96z M 448,384l0-254.656 L 64,129.344 L 64,384 L 448,384 z"/>
<glyph unicode="" d="M 480,448L 32,448 C 14.336,448,0,433.664,0,416l0-288 c0-17.664, 14.336-32, 32-32l 159.968,0 c-0.064-23.136-0.992-53.184-9.76-64L 175.744,32    C 167.040,32, 160,24.832, 160,16C 160,7.168, 167.040,0, 175.744,0l 160.48,0 C 344.96,0, 352,7.168, 352,16c0,8.832-7.040,16-15.744,16l-6.464,0    c-8.8,10.816-9.696,40.864-9.76,64L 480,96 c 17.664,0, 32,14.336, 32,32L 512,416 C 512,433.664, 497.664,448, 480,448z M 224,96l-0.032-0.064   C 223.968,95.968, 223.968,95.968, 224,96L 224,96z M 288.032,95.936L 288,96l 0.032,0 C 288.032,95.968, 288.032,95.968, 288.032,95.936z M 480,160L 32,160 L 32,416 l 448,0 L 480,160 z"/>
<glyph unicode="" d="M 480,320l-64,0 c0,0-18.496,0-32,32c-6.88,16.288-14.336,32-32,32L 224,384 C 206.336,384, 198.656,368.384, 192,352C 179.008,320, 160,320, 160,320L 128,320    c0,17.664-14.336,32-32,32L 64,352 C 46.336,352, 32,337.664, 32,320C 14.336,320,0,305.664,0,288l0-256 c0-17.664, 14.336-32, 32-32l 448,0 c 17.664,0, 32,14.336, 32,32L 512,164 L 512,192 L 512,288    C 512,305.664, 497.664,320, 480,320z M 480,32L 32,32 l0,128 l 145.6,0 c 7.84-54.208, 54.016-96, 110.4-96c 57.76,0, 104.736,43.872, 110.784,100L 480,164 L 480,32 z M 208,176   C 208,220.128, 243.904,256, 288,256s 80-35.872, 80-80c0-44.096-35.904-80-80-80S 208,131.904, 208,176z M 398.4,192C 390.56,246.208, 344.384,288, 288,288   S 185.44,246.208, 177.6,192L 32,192 L 32,288 l 32,0 l 32,0 l 64,0 c 18.688,0, 46.080,13.6, 61.632,51.968C 224.288,346.464, 226.080,350.048, 227.264,352l 121.344,0    c 2.144-3.52, 4.896-10.016, 5.92-12.448C 375.232,290.496, 409.376,288, 416,288l 64,0 l0-96 L 398.4,192 zM 64,239.68A16,16 1260 1 1 96,239.68A16,16 1260 1 1 64,239.68z"/>
<glyph unicode="" d="M 480,352L 32,352 C 14.336,352,0,337.664,0,320l0-320 c0-17.664, 14.336-32, 32-32l 448,0 c 17.664,0, 32,14.336, 32,32L 512,320 C 512,337.664, 497.664,352, 480,352z    M 181.76,127.136l 74.304-50.496l 73.856,50.848L 457.376,0L 54.624,0 L 181.76,127.136z M 32,22.624L 32,228.96 l 122.816-83.488L 32,22.624z M 356.704,145.92   L 480,230.784l0-208.16 L 356.704,145.92z M 480,320l0-51.776 l-0.672,0.96l-223.392-153.824L 32,267.616L 32,320 L 480,320 z"/>
<glyph unicode="" d="M 399.456,160l-12.128,32l-34.24,0 L 158.912,192 l-34.24,0 l-12.128-32L 64,32l 384,0 L 399.456,160z M 146.784,160l 218.464,0 l 36.416-96L 110.368,64    L 146.784,160zM 328.832,256l 34.24,0 l-12.128,32L 285.856,459.552C 281.088,471.872, 269.216,480, 256,480S 230.912,471.872, 226.144,459.552L 161.088,288L 148.96,256   l 34.24,0 L 328.832,256 z M 256,448l 60.672-160L 195.328,288 L 256,448zM 495.744,0L 16.256,0 C 7.264,0,0-6.784,0-15.744S 7.264-32, 16.256-32l 479.488,0 C 504.736-32, 512-24.736, 512-15.744   S 504.736,0, 495.744,0z"/>
<glyph unicode="" d="M 83.744-29.568C 87.712-31.2, 91.872-32, 96-32c 8.32,0, 16.512,3.264, 22.624,9.376L 256,114.752l 137.376-137.376   C 399.488-28.736, 407.68-32, 416-32c 4.128,0, 8.288,0.8, 12.224,2.432C 440.192-24.608, 448-12.928, 448,0L 448,448 c0,17.664-14.336,32-32,32L 96,480    C 78.336,480, 64,465.664, 64,448l0-448 C 64-12.928, 71.808-24.608, 83.744-29.568z M 256,160l-160-160L 96,352 l 320,0 l0-352 L 256,160z M 416,448l0-64 L 96,384 L 96,448 L 416,448 z"/>
<glyph unicode="" d="M 96-32l 320,0 c 17.664,0, 32,14.336, 32,32L 448,352 c0,17.664-14.336,32-32,32l-64.16,0 C 351.072,437.152, 308.512,480, 256,480S 160.928,437.152, 160.16,384   L 96,384 C 78.336,384, 64,369.664, 64,352l0-352 C 64-17.664, 78.336-32, 96-32z M 416,352l0-352 L 96,0 L 96,352 L 416,352 z M 256,448c 34.784,0, 63.072-28.576, 63.84-64L 192.16,384    C 192.928,419.424, 221.216,448, 256,448zM 208,288l 96,0 C 312.832,288, 320,295.168, 320,304C 320,312.832, 312.832,320, 304,320l-96,0 C 199.168,320, 192,312.832, 192,304C 192,295.168, 199.168,288, 208,288z   "/>
<glyph unicode="" d="M 480,416L 32,416 C 14.336,416,0,401.664,0,384l0-65.344 L0,256 l0-192 c0-17.664, 14.336-32, 32-32l 448,0 c 17.664,0, 32,14.336, 32,32L 512,256 L 512,318.656 L 512,384    C 512,401.664, 497.664,416, 480,416z M 480,64L 32,64 L 32,256 l 448,0 L 480,64 z M 32,318.656L 32,384 l 448,0 l0-65.344 L 32,318.656 zM 80,96l 160,0 C 248.832,96, 256,103.168, 256,112C 256,120.832, 248.832,128, 240,128l-160,0 C 71.168,128, 64,120.832, 64,112   C 64,103.168, 71.168,96, 80,96zM 288,112A16,16 1260 1 1 320,112A16,16 1260 1 1 288,112zM 352,112A16,16 1260 1 1 384,112A16,16 1260 1 1 352,112zM 416,112A16,16 1260 1 1 448,112A16,16 1260 1 1 416,112z"/>
<glyph unicode="" d="M 96,0A32,32 1260 1 1 160,0A32,32 1260 1 1 96,0zM 384,0A32,32 1260 1 1 448,0A32,32 1260 1 1 384,0zM-0.928,400c0-8.832, 7.168-16, 16-16L 48.32,384 l 19.872-84.992L 96,160c0-1.152, 0.544-2.144, 0.672-3.264l-16.288-73.28   c-1.056-4.736, 0.096-9.696, 3.136-13.472C 86.56,66.176, 91.136,64, 96,64l 363.008,0 c 8.832,0, 16,7.168, 16,16s-7.168,16-16,16L 115.968,96    l 7.328,32.96C 124.896,128.704, 126.336,128, 128,128l 291.68,0 c 17.664,0, 28.32,3.488, 36.832,24l 51.968,159.424C 517.504,340, 497.696,352, 480,352L 96,352    C 93.504,352, 91.328,351.136, 88.992,350.592L 76.576,403.648C 74.88,410.88, 68.448,416, 60.992,416L 15.072,416 C 6.208,416-0.928,408.832-0.928,400z M 96.64,320l 380.96,0    l-51.072-156.768c-0.608-1.376-1.12-2.368-1.504-3.040C 423.968,160.096, 422.304,160, 419.68,160L 128,160 L 128,163.168 L 127.392,166.272L 96.64,320z"/>
<glyph unicode="" d="M 225.216,368.352C 191.328,402.176, 148.768,405.024, 119.168,375.424C 89.568,345.856, 92.384,303.232, 126.208,269.376l 183.168-183.168   c 6.24-6.24, 16.384-6.24, 22.624,0s 6.24,16.384,0,22.624L 148.832,292c-16.416,16.416-26.88,40.992-7.072,60.8   c 19.776,19.808, 44.384,9.312, 60.8-7.104l 203.648-203.616c 58.4-58.464, 72.96-85.408, 38.176-120.224c-35.2-35.168-72.512-26.464-128.704,29.696   L 89.44,277.856C 52.896,314.4, 27.296,374.080, 75.328,422.080C 132.352,479.104, 197.472,423.040, 216.032,404.448l 207.872-207.904c 6.24-6.24, 16.384-6.24, 22.624,0   s 6.24,16.384,0,22.624L 238.656,427.072C 175.808,489.92, 104.544,496.64, 52.672,444.704C 0.256,392.32, 5.92,316.16, 66.816,255.232l 226.272-226.272   c 19.232-19.232, 60.416-60.384, 107.776-60.384c 21.28,0, 43.84,8.352, 66.176,30.688c 63.584,63.616, 4.768,122.496-38.176,165.472L 225.216,368.352z"/>
<glyph unicode="" d="M 464.928,447.84c-0.288,0-0.576,0-0.864,0c-0.256,0-0.48,0.032-0.736,0L 262.144,447.84    C 257.248,447.616, 246.112,439.968, 244.672,438.528L 9.344,203.2c-12.48-12.48-12.48-32.704,0-45.184l 180.672-180.672C 196.288-28.896, 204.448-32, 212.608-32   c 8.16,0, 16.352,3.104, 22.592,9.344l 235.328,235.328C 471.968,214.112, 480,224, 480,230.144L 480,431.968 C 480.448,440.896, 473.696,447.84, 464.928,447.84z    M 448,236.128c-0.48-0.736-0.96-1.504-1.408-2.112l-233.952-234.016L 31.968,180.576l 234.016,234.016C 266.624,415.040, 267.36,415.52, 268.128,416L 448,416 L 448,236.128 zM 384,368A16,16 1260 1 1 416,368A16,16 1260 1 1 384,368z"/>
<glyph unicode="" d="M 465.28,480c-0.192,0-0.384,0-0.576,0c-0.096,0-0.192,0-0.288,0c-0.032,0-0.064,0-0.096,0   c-0.16,0-0.288,0-0.416,0c-0.064,0-0.128,0-0.192,0L 294.496,480 C 289.6,479.744, 278.464,472.096, 277.024,470.656L 73.344,267.008   c-12.48-12.48-12.48-32.704,0-45.184l 25.408-25.408L 73.344,171.008c-12.48-12.48-12.48-32.704,0-45.184l 148.672-148.672   c 6.24-6.24, 14.4-9.344, 22.592-9.344c 8.16,0, 16.352,3.104, 22.592,9.344l 203.648,203.68C 472.32,182.272, 480,192.128, 480,198.272L 480,464.096    C 480.448,473.024, 474.048,480, 465.28,480z M 448.352,203.68c-0.096-0.16-0.16-0.256-0.128-0.256c0,0,0,0,0,0l-203.584-203.68l-148.672,148.608   l 25.408,25.408l 100.64-100.64c 6.24-6.24, 14.4-9.344, 22.592-9.344c 8.16,0, 16.352,3.104, 22.592,9.344l 181.152,181.152L 448.352,203.68 z M 448.352,352l0-52.32    c-0.096-0.16-0.16-0.256-0.128-0.256l0,0c0,0,0,0,0,0l-203.584-203.68L 95.968,244.352l 202.304,202.272C 298.88,447.072, 299.616,447.552, 300.352,448   l 148,0 L 448.352,352 zM 384.352,400.128A16,16 1260 1 1 416.352,400.128A16,16 1260 1 1 384.352,400.128z"/>
<glyph unicode="" d="M 416,448l-64,0 c0,17.664-14.336,32-32,32L 224,480 C 206.336,480, 192,465.664, 192,448L 128,448 C 110.336,448, 96,433.664, 96,416l 352,0 C 448,433.664, 433.664,448, 416,448zM 96,0c0-17.664, 14.336-32, 32-32l 288,0 c 17.664,0, 32,14.336, 32,32L 448,384 L 96,384 L 96,0 z M 128,352l 288,0 l0-352 L 128,0 L 128,352 zM 176,320C 167.168,320, 160,312.832, 160,304l0-256 C 160,39.168, 167.168,32, 176,32S 192,39.168, 192,48l0,256 C 192,312.832, 184.832,320, 176,320zM 272,320C 263.168,320, 256,312.832, 256,304l0-256 C 256,39.168, 263.168,32, 272,32S 288,39.168, 288,48l0,256 C 288,312.832, 280.832,320, 272,320zM 368,320C 359.168,320, 352,312.832, 352,304l0-256 c0-8.832, 7.168-16, 16-16s 16,7.168, 16,16l0,256    C 384,312.832, 376.832,320, 368,320z"/>
<glyph unicode="" d="M 157.248,474.304C 152.896,479.456, 145.824,481.344, 139.52,479.040C 133.216,476.736, 128.992,470.72, 128.992,464l0-417.504    c0-6.912, 4.416-13.024, 10.976-15.2c 1.632-0.544, 3.328-0.8, 5.024-0.8c 4.96,0, 9.76,2.304, 12.832,6.464l 71.552,96.384l 49.632-141.984   c 6.368-18.176, 26.272-27.776, 44.448-21.408s 27.776,26.272, 21.408,44.448l-48.704,139.296l 111.936-21.664c 6.688-1.344, 13.408,1.76, 16.832,7.584   c 3.424,5.856, 2.816,13.216-1.568,18.4L 157.248,474.304z M 247.2,195.808C 241.152,197.024, 234.976,194.592, 231.328,189.632l-70.304-94.72L 161.024,420.128    l 208.768-248.064L 247.2,195.808z"/>
<glyph unicode="" d="M 224,67.072L 224,0 L 176,0 C 167.168,0, 160-7.168, 160-16C 160-24.832, 167.168-32, 176-32l 79.68,0 L 256.32-32 l 79.68,0    c 8.832,0, 16,7.168, 16,16c0,8.832-7.168,16-16,16L 288,0 l0,67.264 c 66.656,13.152, 128,67.104, 128,156.736L 416,272 C 416,280.832, 408.832,288, 400,288   S 384,280.832, 384,272L 384,224 c0-84.032-64.416-128-128-128c-61.664,0-128,40.064-128,128L 128,272 C 128,280.832, 120.832,288, 112,288S 96,280.832, 96,272L 96,224    C 96,133.12, 156.256,79.808, 224,67.072zM 256,128c 52.928,0, 96,43.072, 96,96L 352,384 c0,52.928-43.072,96-96,96C 203.072,480, 160,436.928, 160,384l0-160 C 160,171.072, 203.072,128, 256,128z M 192,384   c0,35.36, 28.64,64, 64,64s 64-28.64, 64-64l0-160 c0-35.36-28.64-64-64-64S 192,188.64, 192,224L 192,384 z"/>
<glyph unicode="" d="M 256,480C 114.624,480,0,365.376,0,224s 114.624-256, 256-256s 256,114.624, 256,256S 397.376,480, 256,480z M 256,0c-123.52,0-224,100.48-224,224s 100.48,224, 224,224   s 224-100.48, 224-224S 379.52,0, 256,0zM 359.52,349.568L 299.968,312.384L 260.192,287.584c 31.936-2.112, 57.28-27.424, 59.392-59.392l 24.8,39.744l 37.184,59.584   c 3.968,6.304, 3.040,14.528-2.24,19.776C 374.016,352.608, 365.76,353.504, 359.52,349.568zM 192.416,219.808L 167.616,180.032l-37.184-59.584c-3.968-6.304-3.040-14.528, 2.24-19.776C 135.776,97.6, 139.872,96, 144,96   c 2.944,0, 5.888,0.8, 8.48,2.432l 59.552,37.184l 39.776,24.8C 219.872,162.528, 194.528,187.872, 192.416,219.808zM 260.192,287.584C 258.784,287.68, 257.44,288, 256,288C 220.64,288, 192,259.36, 192,224c0-1.44, 0.32-2.784, 0.416-4.192   c 2.112-31.936, 27.456-57.28, 59.392-59.392C 253.216,160.32, 254.56,160, 256,160c 35.36,0, 64,28.64, 64,64c0,1.44-0.32,2.784-0.416,4.192   C 317.472,260.128, 292.128,285.472, 260.192,287.584z M 224,224c0,17.632, 14.368,32, 32,32s 32-14.368, 32-32S 273.632,192, 256,192S 224,206.368, 224,224z"/>
<glyph unicode="" d="M 243.392,217.216c 45.984,0, 83.392,37.408, 83.392,83.392C 326.784,346.592, 289.376,384, 243.392,384S 160,346.592, 160,300.608   C 160,254.624, 197.408,217.216, 243.392,217.216z M 243.392,352c 28.32,0, 51.392-23.040, 51.392-51.392s-23.040-51.392-51.392-51.392S 192,272.288, 192,300.608   S 215.040,352, 243.392,352zM 231.744-23.328c 2.688-2.976, 5.28-4.896, 7.776-6.24c 0.032-0.032, 0.096-0.032, 0.128-0.064   c 1.728-0.896, 3.424-1.568, 5.024-1.568c 1.6,0, 3.296,0.672, 5.024,1.568c 0.032,0.032, 0.096,0.032, 0.128,0.064   c 2.496,1.344, 5.088,3.264, 7.776,6.24c0,0, 148.736,161.76, 163.68,301.92c 0.896,7.232, 1.504,14.56, 1.504,22.016   C 422.784,399.68, 342.464,480, 243.392,480S 64,399.68, 64,300.608c0-7.584, 0.608-14.976, 1.536-22.304C 80.864,138.208, 231.744-23.328, 231.744-23.328z M 243.392,448   c 81.28,0, 147.392-66.112, 147.392-147.392c0-5.408-0.384-11.168-1.312-18.624c-11.456-107.392-112.288-233.408-144.768-271.744   c-33.312,38.4-135.584,164.096-147.424,272C 96.416,289.312, 96,295.136, 96,300.608C 96,381.888, 162.112,448, 243.392,448z"/>
<glyph unicode="" d="M 139.040,195.648C 132.224,187.904, 129.568,177.344, 131.872,167.296c 2.304-10.048, 9.344-18.368, 18.848-22.336   c 22.72-9.504, 61.344-15.52, 105.312-16.736C 256.032,128.16, 256,128.096, 256,128l0-96 c0-17.664, 7.168-64, 16-64S 288,14.336, 288,32l0,96    c0,0.096-0.032,0.16-0.032,0.256c 43.968,1.184, 82.592,7.232, 105.312,16.736c 9.504,3.968, 16.544,12.288, 18.848,22.336   c 2.304,10.048-0.352,20.608-7.168,28.32C 391.84,210.528, 368.928,218.752, 352,223.040l0,165.76 l0,0c 16.736,5.664, 30.944,12.768, 42.176,21.056   c 9.6,7.072, 14.464,18.944, 12.608,30.72s-10.112,21.568-21.44,25.376C 369.728,471.2, 334.208,480, 272,480C 206.24,480, 169.92,469.856, 157.344,465.504   c-11.168-3.872-19.296-13.6-21.12-25.28C 134.4,428.576, 139.168,416.832, 148.608,409.696C 160,401.152, 174.56,393.92, 191.968,388.224l 0.032,0L 192,223.040    C 175.104,218.784, 152.16,210.56, 139.040,195.648z M 201.952,418.624C 185.248,424.096, 174.4,430.336, 167.84,435.296C 184.864,441.184, 219.328,448, 272,448   c 51.648,0, 85.856-6.56, 103.2-12.384c-6.784-4.992-17.536-11.104-33.472-16.512L 320,411.744l0-213.6 l 24.128-6.112   c 17.696-4.48, 31.072-11.008, 36.8-17.536C 366.112,168.32, 330.112,160, 272,160S 177.888,168.32, 163.072,174.496c 5.76,6.528, 19.136,13.056, 36.8,17.536   L 224,198.144L 224,411.424 L 201.952,418.624z"/>
<glyph unicode="" d="M 486.944,415.232l-144,64C 340.672,479.744, 338.336,480, 336,480c-2.080,0-4.192-0.192-6.24-0.608L 175.712,416.704   L 38.976,479.232C 36.672,479.744, 34.336,480, 32,480C 24.8,480, 17.728,477.568, 12,472.96C 4.416,466.912,0,457.728,0,448l0-384 c0-14.976, 10.4-27.968, 25.024-31.232   l 143.328-64C 170.656-31.744, 172.992-32, 175.328-32c 2.080,0, 4.192,0.192, 6.24,0.608l 154.048,62.688l 137.408-62.528C 475.36-31.744, 477.696-32, 480-32   c 7.2,0, 14.304,2.432, 20.032,7.040C 507.584-18.88, 512-9.696, 512,0L 512,384 C 512,399.008, 501.568,412, 486.944,415.232z M 192,390.624l 128,50.976l0-384    l-128-50.976L 192,390.624 z M 32,448l 128-57.152l0-384 L 32,64L 32,448 z M 480,0l-128,56.896l0,384 L 480,384L 480,0 z"/>
<glyph unicode="" d="M 404.992,448L 104,448 C 86.336,448, 72,436, 64,416L0,192.512L0,176 l0-33.664 L0,16 C0,7.168, 7.168,0, 16,0l 480,0    c 8.832,0, 16,7.168, 16,16l0,127.872 L 512,176 L 512,190.528 L 448,416C 439.008,436, 422.688,448, 404.992,448z M 94.24,405.344C 95.712,408.64, 99.456,416, 104,416l 300.992,0    c 4.384,0, 9.44-4.512, 12.992-11.392L 478.304,192L 336,192 C 327.168,192, 320,184.832, 320,176L 320,128 L 192,128 L 192,176 C 192,184.832, 184.832,192, 176,192L 33.152,192 L 94.24,405.344z    M 480,32L 32,32 l0,111.552 L 32,160 l 128,0 l0-48 C 160,103.168, 167.168,96, 176,96l 160,0 c 8.832,0, 16,7.168, 16,16L 352,160 l 128,0 l0-15.36 L 480,32 z"/>
<glyph unicode="" d="M 480,320l-128,0 c0-17.664-14.336-32-32-32l 160,0 l0-64 l-160,0 c 17.664,0, 32-14.336, 32-32l 128,0 l0-192 L 32,0 L 32,192 l 128,0 c0,17.664, 14.336,32, 32,32L 32,224 L 32,288 l 160,0    C 174.336,288, 160,302.336, 160,320L 32,320 C 14.336,320,0,305.664,0,288l0-64 l0-32 l0-192 c0-17.664, 14.336-32, 32-32l 448,0 c 17.664,0, 32,14.336, 32,32L 512,192 L 512,224 L 512,288 C 512,305.664, 497.664,320, 480,320zM 192,288l 128,0 c 17.664,0, 32,14.336, 32,32L 352,352 c0,17.664-14.336,32-32,32L 192,384 C 174.336,384, 160,369.664, 160,352l0-32 C 160,302.336, 174.336,288, 192,288z M 192,352l 128,0 l0-32    L 192,320 L 192,352 zM 160,192l0-32 c0-17.664, 14.336-32, 32-32l 128,0 c 17.664,0, 32,14.336, 32,32L 352,192 c0,17.664-14.336,32-32,32L 192,224 C 174.336,224, 160,209.664, 160,192z M 320,160L 192,160    L 192,192 l 128,0 L 320,160 z"/>
<glyph unicode="" d="M 432.672,480L 288.288,480 L 144,480 L 80.672,480 C 36.512,480, 0.768,444.512, 0.128,400.512L0,400.672l0-66.656 L0,288 l0-175.328 l0-39.584 l0-24.416    C0,4.128, 36.128-32, 80.672-32l 14.592,0 L 224-32 l 44,0 l 21.408,0 l 63.264,0 C 370.336-32, 384-17.664, 384,0L 384,336 C 384,344.832, 377.504,352, 368.672,352l-288,0    C 53.824,352, 32,372.512, 32,399.328C 32,426.176, 53.824,448, 80.672,448L 144,448 l 149.12,0 L 416,448 l0-368 c0-8.832, 7.84-16, 16.672-16S 448,71.168, 448,80l0,384    C 448,472.832, 441.504,480, 432.672,480z M 80.672,320l 271.36,0 l 0.64-320L 289.408,0 L 268,0 L 224,0 L 95.264,0 L 80.672,0 C 53.824,0, 32,21.824, 32,48.672l0,24.416 l0,39.584 L 32,288 L 32,334.016    L 32,335.648 C 45.44,325.792, 62.24,320, 80.672,320z"/>
<glyph unicode="" d="M 510.112,390.016C 506.080,403.040, 494.368,412.672, 480,412.672l-32,0 l0-32 l0-17.664 c0-26.464-21.536-48-48-48S 352,336.544, 352,363.008   L 352,380.672 l0,32 L 159.84,412.672 l0-32 l0-17.664 c0-26.464-21.536-48-48-48c-26.464,0-48,21.536-48,48L 63.84,380.672 l0,32 L 32,412.672 c-14.368,0-26.080-9.632-30.112-22.656L0,390.016    l0-9.344 l0-99.68 L0,0 c0-17.664, 14.336-32, 32-32l 448,0 c 17.664,0, 32,14.336, 32,32L 512,280.992 L 512,380.672 L 512,390.016 L 510.112,390.016 z M 480,0L 32,0 L 32,256 l 448,0 L 480,0 zM 111.84,347.008c 8.832,0, 16,7.168, 16,16L 127.84,464 c0,8.832-7.168,16-16,16s-16-7.168-16-16l0-100.992    C 95.84,354.176, 103.008,347.008, 111.84,347.008zM 400,347.008c 8.832,0, 16,7.168, 16,16L 416,464 C 416,472.832, 408.832,480, 400,480S 384,472.832, 384,464l0-100.992    C 384,354.176, 391.168,347.008, 400,347.008z"/>
<glyph unicode="" d="M 480,480L 32,480 C 14.336,480,0,465.664,0,448l0-448 c0-17.664, 14.336-32, 32-32l 448,0 c 17.664,0, 32,14.336, 32,32L 512,448 C 512,465.664, 497.664,480, 480,480z    M 96,192l0-64 L 32,128 L 32,192 L 96,192 z M 32,256L 32,320 l 64,0 l0-64 L 32,256 z M 128,160l 256,0 l0-160 L 128,0 L 128,160 z M 384,192L 128,192 L 128,448 l 256,0 L 384,192 z M 416,192l 64,0 l0-64 l-64,0 L 416,192 z M 416,256L 416,320 l 64,0 l0-64 L 416,256 z M 416,384L 416,448 l 64,0 l0-64 L 416,384 z M 96,384L 32,384 L 32,448 l 64,0 L 96,384 z    M 32,64l 64,0 l0-64 L 32,0 L 32,64 z M 416,64l 64,0 l0-64 l-64,0 L 416,64 z"/>
<glyph unicode="" d="M 511.456,417.664C 510.048,434.144, 496.736,448, 480,448L 32,448 C 15.264,448, 1.952,434.144, 0.544,417.664L0,417.664 l0-2.656 L0,352 l0-226.656 L0,96 l0-96    c0-17.664, 14.336-32, 32-32l 448,0 c 17.664,0, 32,14.336, 32,32L 512,352 L 512,415.008 L 512,417.664 L 511.456,417.664 z M 192,256L 192,352 l 128,0 l0-96 L 192,256 z M 320,224l0-98.656 L 192,125.344 L 192,224 L 320,224 z M 160,352l0-96 L 32,256 L 32,352 L 160,352 z M 32,224l 128,0 l0-98.656    L 32,125.344 L 32,224 z M 32,0l0,96 l 128,0 l0-96 L 32,0 z M 192,0l0,96 l 128,0 l0-96 L 192,0 z M 480,0l-128,0 l0,96 l 128,0 L 480,0 z M 480,125.344l-128,0 L 352,224 l 128,0 L 480,125.344 z M 480,256l-128,0 L 352,352 l 128,0 L 480,256 z"/>
<glyph unicode="" d="M 416,480L 32,480 C 14.336,480,0,465.664,0,448l0-448 c0-17.664, 14.336-32, 32-32l 384,0 c 17.664,0, 32,14.336, 32,32L 448,448 C 448,465.664, 433.664,480, 416,480z    M 32,448l 64,0 l0-448 L 32,0 L 32,448 z M 416,0L 128,0 L 128,448 l 288,0 L 416,0 zM 221.792,308.256A48.448,48.448 1260 1 1 318.688,308.256A48.448,48.448 1260 1 1 221.792,308.256zM 271.232,240.448C 227.488,240.448, 192,192.864, 192,134.176s 158.496-58.688, 158.496,0S 315.008,240.448, 271.232,240.448zM 480,448L 512,448L 512,352L 480,352zM 480,320L 512,320L 512,224L 480,224zM 480,192L 512,192L 512,96L 480,96z"/>
<glyph unicode="" d="M 480,160L 480,224 c0,147.072-112.672,224-224,224C 147.392,448, 32,369.504, 32,224l0-64 c-17.664,0-32-14.336-32-32l0-64 c0-17.664, 14.336-32, 32-32   c0-17.664, 14.336-32, 32-32s 32,14.336, 32,32l0,128 c0,17.664-14.336,32-32,32L 64,224 c0,126.048, 96.608,192, 192,192c 92.48,0, 192-60.064, 192-192l0-32 c-17.664,0-32-14.336-32-32l0-128    c0-17.664, 14.336-32, 32-32s 32,14.336, 32,32c 17.664,0, 32,14.336, 32,32l0,64 C 512,145.664, 497.664,160, 480,160z"/>
<glyph unicode="" d="M 256,480C 190.496,480, 124.96,455.008, 74.976,405.024c-99.968-99.968-99.968-262.080,0-362.048C 124.96-7.008, 190.496-32, 256-32   s 131.040,24.992, 181.024,74.976c 99.968,99.968, 99.968,262.080,0,362.048C 387.040,455.008, 321.504,480, 256,480z M 165.504,133.504C 141.312,157.664, 128,189.824, 128,224   c0,34.176, 13.312,66.336, 37.504,90.496C 189.664,338.688, 221.824,352, 256,352s 66.336-13.312, 90.496-37.504C 370.688,290.336, 384,258.176, 384,224   c0-34.176-13.312-66.336-37.504-90.496C 322.336,109.312, 290.176,96, 256,96S 189.664,109.312, 165.504,133.504z M 354.976,424.8L 305.6,375.424   C 289.472,380.704, 272.8,384, 256,384C 240.704,384, 225.568,381.088, 210.752,376.736l-49.92,49.92C 190.272,440.448, 222.528,448, 256,448C 290.944,448, 324.544,439.84, 354.976,424.8z    M 53.376,319.136l 49.92-49.92c-9.152-31.040-8.768-64, 1.28-94.848l-49.376-49.376C 40.16,155.456, 32,189.056, 32,224C 32,257.472, 39.552,289.728, 53.376,319.136z    M 97.6,65.632L 97.6,65.632C 97.6,65.6, 97.6,65.6, 97.6,65.632L 97.6,65.632z M 164.704,19.552l 50.432,50.432C 228.544,66.432, 242.208,64, 256,64   c 15.296,0, 30.432,2.912, 45.248,7.296l 49.92-49.92C 321.728,7.552, 289.472,0, 256,0C 223.968,0, 193.088,6.88, 164.704,19.552z M 458.56,128.928   l-49.824,49.824c 8.288,28.128, 8.768,57.792, 1.28,86.112l 50.336,50.336C 486.688,255.968, 486.080,187.744, 458.56,128.928z"/>
<glyph unicode="" d="M 256-32c 82.528,0, 155.744,39.232, 202.56,99.872L 256,224L 256,480 C 114.624,480,0,365.376,0,224S 114.624-32, 256-32z M 224,445.728L 224,224    c0-9.92, 4.608-19.296, 12.448-25.344l 175.424-135.232C 370.304,22.784, 314.976,0, 256,0c-123.52,0-224,100.48-224,224C 32,336.64, 115.584,430.144, 224,445.728zM 300,475.712l0-228.96 l 182.784-140.896C 501.344,141.216, 512,181.312, 512,224C 512,350.336, 420.352,454.816, 300,475.712z"/>
<glyph unicode="" d="M 479.584,480c-17.92,0-32.416-14.528-32.416-32.416l0-75.584 C 410.624,416.256, 368.512,480, 252.608,480C 113.344,480,0,366.688,0,227.392   c0-139.296, 113.344-252.608, 252.608-252.608c 109.376,0, 205.824,69.856, 240.064,173.824c 5.664,17.312-3.744,35.968-21.056,41.664   c-17.312,5.696-35.968-3.712-41.664-21.024c-25.28-76.832-96.544-128.448-177.344-128.448c-102.912,0-186.624,83.712-186.624,186.624   s 83.712,186.24, 186.624,186.24c 72.864,0, 113.344-45.344, 146.368-92.896L 317.472,320.768 c-17.92,0-32.416-14.528-32.416-32.416c0-17.92, 14.528-32.416, 32.416-32.416   l 162.112,0 C 497.472,255.872, 512,270.4, 512,288.288L 512,447.584 C 512,465.472, 497.472,480, 479.584,480z"/>
<glyph unicode="" d="M 152.928,415.104c 18.72,18.72, 49.152,18.72, 67.872,0l 171.616-171.616c 8.448,31.968, 0.544,67.36-24.512,92.416   L 254.752,449.024c-37.504,37.504-98.272,37.504-135.776,0L 93.536,423.584c-37.504-37.504-37.504-98.272,0-135.776l 113.152-113.152   c 25.056-25.056, 60.448-32.96, 92.416-24.512L 127.488,321.76c-18.72,18.72-18.72,49.152,0,67.872L 152.928,415.104zM 257.248-1.024c 37.504-37.504, 98.272-37.504, 135.776,0l 25.44,25.472c 37.504,37.504, 37.504,98.272,0,135.776L 305.312,273.312   c-25.056,25.056-60.448,32.96-92.416,24.512l 171.616-171.616c 18.72-18.72, 18.72-49.152,0-67.872l-25.472-25.472c-18.72-18.72-49.152-18.72-67.872,0   L 119.584,204.512c-8.448-31.968-0.544-67.36, 24.512-92.416L 257.248-1.024z"/>
<glyph unicode="" d="M 120.64,227.68c 20.448-20.448, 50.528-27.616, 77.888-19.456L 47.36,359.36C 42.432,364.288, 39.84,371.424, 39.84,379.936   c0,14.080, 7.36,32.064, 17.12,41.824c 12.8,12.8, 47.52,26.976, 63.68,10.912l 151.136-151.168c 2.208,7.392, 3.328,15.072, 3.328,22.752   c0,20.864-8.096,40.416-22.784,55.136L 149.824,461.856C 119.040,492.64, 57.856,481.088, 27.744,450.976C 10.272,433.504-0.576,406.432-0.576,380.32   c0-20.288, 6.656-38.112, 18.72-50.176L 120.64,227.68zM 391.36,220.32c-20.448,20.448-50.528,27.616-77.888,19.456l 151.168-151.168c 4.928-4.928, 7.52-12.032, 7.52-20.576   c0-14.080-7.36-32.064-17.12-41.824c-12.8-12.8-47.52-26.976-63.68-10.912L 240.224,166.496c-2.208-7.392-3.328-15.072-3.328-22.752   c0-20.864, 8.096-40.416, 22.784-55.136l 102.464-102.464c 30.784-30.784, 91.968-19.232, 122.080,10.88c 17.472,17.472, 28.32,44.544, 28.32,70.656   c0,20.288-6.656,38.112-18.72,50.176L 391.36,220.32zM 146.624,333.408C 142.528,329.344, 140.288,323.904, 140.288,318.144s 2.24-11.168, 6.304-15.232l 188.288-188.32   c 8.416-8.384, 22.080-8.384, 30.496,0c 4.096,4.064, 6.304,9.504, 6.304,15.264s-2.24,11.168-6.304,15.232L 177.088,333.408   C 168.704,341.792, 155.008,341.792, 146.624,333.408z"/>
<glyph unicode="" d="M 432.32,114.88A2.912,2.912 1260 1 1 438.144,114.88A2.912,2.912 1260 1 1 432.32,114.88zM 368.032,48.544A5.792,5.792 1260 1 1 379.616,48.54399999999998A5.792,5.792 1260 1 1 368.032,48.54399999999998zM 281.376,14.4A8.704,8.704 1260 1 1 298.784,14.399999999999977A8.704,8.704 1260 1 1 281.376,14.399999999999977zM 188.096,18.976A11.584,11.584 1260 1 1 211.264,18.976A11.584,11.584 1260 1 1 188.096,18.976zM 105.344,61.44A14.496,14.496 1260 1 1 134.336,61.44A14.496,14.496 1260 1 1 105.344,61.44zM 48.032,133.632A17.408,17.408 1260 1 1 82.848,133.632A17.408,17.408 1260 1 1 48.032,133.632zM 26.528,222.272A20.288,20.288 1260 1 1 67.104,222.272A20.288,20.288 1260 1 1 26.528,222.272zM 44.224,310.336A23.2,23.2 1260 1 1 90.624,310.336A23.2,23.2 1260 1 1 44.224,310.336zM 97.312,381.344A26.112,26.112 1260 1 1 149.536,381.344A26.112,26.112 1260 1 1 97.312,381.344zM 175.264,422.016A28.992,28.992 1260 1 1 233.248,422.016A28.992,28.992 1260 1 1 175.264,422.016zM 262.816,424.544A31.904,31.904 1260 1 1 326.624,424.544A31.904,31.904 1260 1 1 262.816,424.544zM 342.976,388.48A34.784,34.784 1260 1 1 412.544,388.48A34.784,34.784 1260 1 1 342.976,388.48zM 399.936,320.736A37.696,37.696 1260 1 1 475.328,320.736A37.696,37.696 1260 1 1 399.936,320.736zM 422.592,232.992A40.608,40.608 1260 1 1 503.808,232.992A40.608,40.608 1260 1 1 422.592,232.992z"/>
<glyph unicode="" d="M 256,480C 114.624,480,0,365.376,0,224s 114.624-256, 256-256s 256,114.624, 256,256S 397.376,480, 256,480z M 256,416c 105.856,0, 192-86.144, 192-192  c0-41.408-13.312-79.68-35.68-111.072L 144.928,380.32C 176.32,402.688, 214.592,416, 256,416z M 64,224c0,41.408, 13.312,79.68, 35.68,111.072l 267.392-267.392l0,0  C 335.648,45.312, 297.408,32, 256,32C 150.144,32, 64,118.144, 64,224z"/>
<glyph unicode="" d="M 480,416L 32,416 C 14.336,416,0,401.664,0,384l0-64 l 512,0 L 512,384 C 512,401.664, 497.664,416, 480,416z M 480,352L 32,352 L 32,384 l 448,0 L 480,352 zM 32,0c0-17.664, 14.336-32, 32-32l 384,0 c 17.664,0, 32,14.336, 32,32L 480,288 L 32,288 L 32,0 z M 64,256l 384,0 l0-256 L 64,0 L 64,256 zM 336,224l-160,0 C 167.168,224, 160,216.832, 160,208C 160,199.168, 167.168,192, 176,192l 160,0 C 344.832,192, 352,199.168, 352,208   C 352,216.832, 344.832,224, 336,224z"/>
<glyph unicode="" d="M 511.744,258.656C 510.4,337.184, 446.688,407.168, 368,407.168c-45.504,0-85.6-23.808-112-58.752   C 229.6,383.36, 189.504,407.168, 144,407.168c-78.688,0-142.4-69.984-143.744-148.512L0,258.656 c0-0.48, 0.096-0.928, 0.096-1.408   C 0.096,256.896,0,256.544,0,256.16c0-2.208, 0.544-3.872, 0.64-5.984C 7.68,50.048, 253.984-32, 253.984-32s 249.92,81.952, 257.312,281.856   C 511.424,252.096, 512,253.856, 512,256.16c0,0.384-0.096,0.736-0.096,1.088C 511.904,257.76, 512,258.176, 512,258.656L 511.744,258.656 z M 479.328,251.040   c-5.664-153.6-181.056-231.68-225.28-248.928c-43.84,17.28-216.032,95.008-221.44,249.536C 32.544,253.248, 32.384,254.72, 32.16,256.32   c 0.032,0.576, 0.064,1.184, 0.096,1.792C 33.344,321.568, 84.512,375.168, 144,375.168c 32.832,0, 64.352-16.768, 86.464-46.048   C 236.512,321.12, 245.952,316.416, 256,316.416s 19.488,4.704, 25.536,12.704C 303.648,358.4, 335.168,375.168, 368,375.168c 59.488,0, 110.656-53.6, 111.744-117.056   c0-0.608, 0.032-1.216, 0.096-1.824C 479.616,254.72, 479.424,253.056, 479.328,251.040z"/>
<glyph unicode="" d="M 510.144,272.864c-3.776,11.584-13.792,20.032-25.824,21.792l-137.92,20.032L 284.704,439.648   C 279.296,450.592, 268.192,457.504, 256,457.504S 232.704,450.592, 227.296,439.648L 165.632,314.688l-137.92-20.032c-12.064-1.76-22.080-10.208-25.824-21.792   c-3.776-11.584-0.64-24.288, 8.096-32.8l 99.808-97.28l-23.552-137.376c-2.048-12, 2.88-24.128, 12.736-31.296C 104.512-29.952, 111.104-32, 117.76-32   c 5.088,0, 10.208,1.216, 14.88,3.68L 256,36.544l 123.36-64.864C 384.032-30.784, 389.152-32, 394.24-32c 6.624,0, 13.248,2.048, 18.816,6.112   c 9.856,7.168, 14.784,19.296, 12.736,31.296l-23.552,137.376l 99.808,97.28C 510.752,248.544, 513.888,261.28, 510.144,272.864z M 367.84,153.952L 394.24,0   L 256,72.672L 117.76,0l 26.4,153.952L 32.32,262.976L 186.88,285.44L 256,425.504l 69.12-140.064l 154.56-22.464L 367.84,153.952z"/>
<glyph unicode="" d="M 510.144,272.864c-3.776,11.584-13.792,20.032-25.856,21.76l-137.92,20.032L 284.704,439.648  C 279.296,450.592, 268.192,457.504, 256,457.504S 232.704,450.592, 227.296,439.648L 165.632,314.688l-137.92-20.032c-12.064-1.76-22.080-10.208-25.824-21.792  c-3.776-11.584-0.64-24.288, 8.096-32.8l 99.808-97.28l-23.552-137.376c-2.048-12, 2.88-24.128, 12.736-31.296C 104.512-29.952, 111.104-32, 117.76-32  c 5.088,0, 10.208,1.216, 14.88,3.68L 256,36.544l 123.36-64.864C 384.032-30.784, 389.152-32, 394.24-32c 6.624,0, 13.248,2.048, 18.816,6.112  c 9.856,7.168, 14.784,19.296, 12.736,31.296l-23.552,137.376l 99.808,97.28C 510.784,248.576, 513.92,261.28, 510.144,272.864z M 367.84,153.952L 394.24,0  L 256,72.672L 256,425.504 l 69.12-140.064l 154.56-22.464L 367.84,153.952z"/>
<glyph unicode="" d="M 332.096,291.712L 253.696,450.56L 175.296,291.712L0,266.24L 126.848,142.592L 96.896-32L 253.696,50.432L 410.496-32L 380.544,142.592L 507.392,266.24  z"/>
<glyph unicode="" d="M 256,50.432L 256,450.56L 177.6,291.712L 2.304,266.24L 129.152,142.592L 99.2-32  z"/>
<glyph unicode="" d="M 13.568,49.44c-18.752-18.752-18.752-49.12,0-67.872c 9.376-9.376, 21.664-14.048, 33.952-14.048   c 12.288,0, 24.576,4.672, 33.952,14.048l 157.6,157.6L 171.168,207.040L 13.568,49.44zM 407.456,341.536L 476.032,377.024L 512,446.496L 478.496,480L 409.024,444.032L 373.536,375.456L 289.952,291.872L 323.872,257.952     zM 422.464,159.36C 420.288,159.488, 418.208,160, 416,160c-11.712,0-22.816-2.4-33.184-6.24L 185.76,350.816   C 189.6,361.184, 192,372.288, 192,384c0,2.208-0.512,4.288-0.64,6.464C 187.968,440.416, 146.816,480, 96,480C 81.216,480, 67.36,476.384, 54.848,470.4l 63.776-63.776   c 3.36-3.36, 5.664-7.328, 7.2-11.52c 4.192-11.36, 1.92-24.576-7.2-33.728C 112.384,355.136, 104.192,352, 96,352C 92.224,352, 88.48,352.832, 84.896,354.176   c-4.192,1.568-8.16,3.84-11.52,7.2L 9.6,425.152C 3.616,412.64,0,398.784,0,384c0-50.816, 39.584-91.968, 89.536-95.36C 91.712,288.512, 93.792,288, 96,288   c 11.712,0, 22.816,2.4, 33.184,6.24l 197.056-197.056C 322.4,86.816, 320,75.712, 320,64c0-2.208, 0.512-4.288, 0.64-6.464   C 324.032,7.584, 365.184-32, 416-32c 14.784,0, 28.64,3.616, 41.152,9.6l-63.776,63.776c-3.36,3.36-5.664,7.328-7.2,11.52   c-4.192,11.36-1.92,24.576, 7.2,33.728C 399.616,92.864, 407.808,96, 416,96c 3.776,0, 7.52-0.832, 11.104-2.176   c 4.192-1.568, 8.16-3.84, 11.52-7.2l 63.776-63.776C 508.384,35.36, 512,49.216, 512,64C 512,114.816, 472.416,155.968, 422.464,159.36z"/>
<glyph unicode="" d="M 416,96c 3.776,0, 7.52-0.832, 11.104-2.176c 4.192-1.568, 8.16-3.84, 11.52-7.2l 63.776-63.776  C 508.384,35.36, 512,49.216, 512,64c0,50.816-39.584,91.968-89.536,95.36C 420.288,159.488, 418.208,160, 416,160c-11.712,0-22.816-2.4-33.184-6.24  L 185.76,350.816C 189.6,361.184, 192,372.288, 192,384c0,2.208-0.512,4.288-0.64,6.464C 187.968,440.416, 146.816,480, 96,480C 81.216,480, 67.36,476.384, 54.848,470.4  l 63.776-63.776c 3.36-3.36, 5.664-7.328, 7.2-11.52c 4.192-11.36, 1.92-24.576-7.2-33.728C 112.384,355.136, 104.192,352, 96,352  C 92.224,352, 88.48,352.832, 84.896,354.176c-4.192,1.568-8.16,3.84-11.52,7.2L 9.6,425.152C 3.616,412.64,0,398.784,0,384  c0-50.816, 39.584-91.968, 89.536-95.36C 91.712,288.512, 93.792,288, 96,288c 11.712,0, 22.816,2.4, 33.184,6.24l 197.056-197.056  C 322.4,86.816, 320,75.712, 320,64c0-2.208, 0.512-4.288, 0.64-6.464C 324.032,7.584, 365.184-32, 416-32c 14.784,0, 28.64,3.616, 41.152,9.6  l-63.776,63.776c-3.36,3.36-5.664,7.328-7.2,11.52c-4.192,11.36-1.92,24.576, 7.2,33.728C 399.616,92.864, 407.808,96, 416,96z"/>
<glyph unicode="" d="M 440.416,277.088c-4.032,14.016-9.504,27.36-16.448,39.872l 31.808,66.912c-11.808,14.72-25.184,28.096-39.904,39.904   l-66.912-31.808c-12.48,6.912-25.856,12.416-39.872,16.448L 284.192,478.368C 274.944,479.392, 265.536,480, 256,480S 237.056,479.392, 227.808,478.368L 202.912,408.416   C 188.928,404.384, 175.552,398.88, 163.072,391.968L 96.128,423.776c-14.72-11.808-28.096-25.184-39.904-39.904l 31.808-66.912   c-6.912-12.48-12.416-25.856-16.448-39.872L 1.632,252.192C 0.608,242.944,0,233.536,0,224s 0.608-18.944, 1.632-28.192l 69.984-24.896   c 4.032-14.016, 9.504-27.36, 16.448-39.872l-31.808-66.912c 11.808-14.72, 25.184-28.128, 39.904-39.904l 66.912,31.808   c 12.48-6.912, 25.856-12.416, 39.872-16.448l 24.896-69.984C 237.056-31.392, 246.464-32, 256-32s 18.944,0.608, 28.192,1.632l 24.896,69.984   c 14.016,4.032, 27.36,9.504, 39.872,16.448l 66.912-31.808c 14.72,11.808, 28.128,25.184, 39.904,39.904l-31.808,66.912   c 6.912,12.48, 12.416,25.856, 16.448,39.872l 69.984,24.896C 511.392,205.056, 512,214.464, 512,224s-0.608,18.944-1.632,28.192L 440.416,277.088z M 256,96   c-70.688,0-128,57.312-128,128c0,70.688, 57.312,128, 128,128s 128-57.312, 128-128C 384,153.312, 326.688,96, 256,96zM 192,224A64,64 1260 1 1 320,224A64,64 1260 1 1 192,224z"/>
<glyph unicode="" d="M 15.648,204.832l 55.52,2.048C 77.728,198.368, 85.312,190.624, 93.76,183.712l-3.648-55.584   c 6.080-3.456, 12.352-6.656, 18.944-9.504c 6.56-2.848, 13.216-5.184, 19.904-7.264l 37.92,40.8c 10.848-1.376, 21.664-1.568, 32.32-0.512   l 36.64-41.792c 13.664,3.744, 26.848,8.992, 39.328,15.648L 273.152,181.056C 281.632,187.616, 289.376,195.2, 296.288,203.648l 55.584-3.648   c 3.456,6.080, 6.656,12.352, 9.504,18.944c 2.848,6.56, 5.184,13.216, 7.264,19.904l-40.8,37.92c 1.376,10.848, 1.568,21.664, 0.512,32.32   l 41.792,36.64c-3.744,13.664-8.992,26.848-15.648,39.328L 298.944,383.040C 292.384,391.52, 284.8,399.264, 276.352,406.176L 280,461.76   C 273.92,465.216, 267.648,468.416, 261.056,471.264C 254.496,474.080, 247.84,476.448, 241.152,478.496L 203.264,437.696c-10.848,1.376-21.664,1.568-32.32,0.512   L 134.272,480C 120.608,476.256, 107.424,471.008, 94.944,464.352L 96.96,408.832C 88.48,402.272, 80.736,394.72, 73.824,386.272L 18.24,389.888   c-3.456-6.080-6.656-12.352-9.504-18.944C 5.92,364.384, 3.552,357.728, 1.504,351.040l 40.8-37.92c-1.376-10.848-1.568-21.664-0.512-32.32L0,244.16   C 3.744,230.528, 8.992,217.312, 15.648,204.832z M 223.072,383.104c 48.672-20.992, 71.136-77.472, 50.144-126.176S 195.744,185.792, 147.040,206.784   S 75.904,284.256, 96.896,332.96S 174.368,404.096, 223.072,383.104zM 137.056,294.944A48,48 1260 1 1 233.056,294.94399999999996A48,48 1260 1 1 137.056,294.94399999999996zM 480.672,103.232l-13.248,4.704l 6.048,12.736l 13.92,29.28c-5.152,6.432-11.008,12.288-17.472,17.472l-29.28-13.92   l-12.736-6.048l-4.704,13.248l-10.88,30.624C 408.288,191.744, 404.16,192, 400,192s-8.288-0.256-12.352-0.704l-10.88-30.624l-4.704-13.248   l-12.736,6.048l-29.28,13.92c-6.432-5.152-12.288-11.008-17.472-17.472l 13.92-29.28l 6.048-12.736l-13.248-4.704l-30.624-10.88   C 288.256,88.288, 288,84.16, 288,80s 0.256-8.288, 0.704-12.32l 30.624-10.88l 13.248-4.704l-6.048-12.736l-13.92-29.28   c 5.152-6.432, 11.008-12.288, 17.472-17.472l 29.28,13.92l 12.736,6.048l 4.704-13.248l 10.88-30.624C 391.712-31.744, 395.84-32, 400-32   s 8.288,0.256, 12.352,0.704l 10.88,30.624l 4.704,13.248l 12.736-6.048l 29.28-13.92c 6.432,5.152, 12.288,11.008, 17.472,17.472l-13.92,29.28   l-6.048,12.736l 13.248,4.704l 30.624,10.88C 511.744,71.712, 512,75.84, 512,80s-0.256,8.288-0.704,12.352L 480.672,103.232z M 400,56   c-13.248,0-24,10.752-24,24c0,13.248, 10.752,24, 24,24s 24-10.752, 24-24C 424,66.752, 413.248,56, 400,56z"/>
<glyph unicode="" d="M 272,448C 139.456,448, 32,340.544, 32,208S 139.456-32, 272-32S 512,75.456, 512,208S 404.544,448, 272,448z M 379.328,228.672   c-6.24-6.24-16.384-6.24-22.624,0L 288,297.376L 288,48 C 288,39.168, 280.832,32, 272,32S 256,39.168, 256,48L 256,297.376 L 187.328,228.672   c-6.24-6.24-16.384-6.24-22.624,0c-6.24,6.24-6.24,16.384,0,22.624l 96,96C 260.736,347.36, 260.768,347.36, 260.8,347.392   c 1.44,1.408, 3.168,2.592, 5.056,3.36c 3.904,1.632, 8.32,1.632, 12.224,0C 280.064,349.952, 281.824,348.8, 283.328,347.328l 96-96   C 385.568,245.056, 385.568,234.944, 379.328,228.672z"/>
<glyph unicode="" d="M 272,448C 139.456,448, 32,340.544, 32,208S 139.456-32, 272-32S 512,75.456, 512,208S 404.544,448, 272,448z M 379.328,164.672l-96-96   c-1.472-1.472-3.232-2.656-5.184-3.456c-3.904-1.632-8.32-1.632-12.224,0c-1.92,0.8-3.616,1.952-5.056,3.36   c-0.032,0.032-0.096,0.032-0.128,0.096l-96,96c-6.24,6.24-6.24,16.384,0,22.624c 6.24,6.24, 16.384,6.24, 22.624,0L 256,118.624L 256,368    C 256,376.832, 263.168,384, 272,384S 288,376.832, 288,368l0-249.376 l 68.672,68.672c 6.24,6.24, 16.384,6.24, 22.624,0C 385.568,181.056, 385.568,170.944, 379.328,164.672z   "/>
<glyph unicode="" d="M 272,448C 139.456,448, 32,340.544, 32,208S 139.456-32, 272-32S 512,75.456, 512,208S 404.544,448, 272,448z M 448,208   C 448,199.168, 440.832,192, 432,192L 182.624,192 l 68.672-68.672c 6.24-6.24, 6.24-16.384,0-22.624c-6.24-6.24-16.384-6.24-22.624,0l-96,96   C 132.64,196.736, 132.608,196.8, 132.576,196.864C 131.168,198.304, 130.016,200, 129.248,201.888C 128.448,203.84, 128,205.888, 128,207.936C 128,207.968, 128,207.968, 128,208l0,0   c0,2.080, 0.416,4.16, 1.248,6.112c 0.768,1.888, 1.92,3.584, 3.328,5.024c 0.064,0.064, 0.064,0.128, 0.128,0.192l 96,96   c 6.24,6.24, 16.384,6.24, 22.624,0c 6.24-6.24, 6.24-16.384,0-22.624L 182.624,224L 432,224 C 440.832,224, 448,216.832, 448,208z"/>
<glyph unicode="" d="M 272,448C 139.456,448, 32,340.544, 32,208S 139.456-32, 272-32S 512,75.456, 512,208S 404.544,448, 272,448z M 416,208   c0-0.032,0-0.032,0-0.064c0-2.080-0.416-4.128-1.216-6.048c-0.8-1.952-1.984-3.712-3.456-5.184l-96-96   c-6.24-6.24-16.384-6.24-22.624,0c-6.24,6.24-6.24,16.384,0,22.624L 361.376,192L 112,192 C 103.168,192, 96,199.168, 96,208C 96,216.832, 103.168,224, 112,224   l 249.376,0 L 292.672,292.672c-6.24,6.24-6.24,16.384,0,22.624c 6.24,6.24, 16.384,6.24, 22.624,0l 96-96c 1.472-1.472, 2.656-3.232, 3.456-5.184   C 415.584,212.16, 416,210.080, 416,208L 416,208z"/>
<glyph unicode="" d="M 102.304,377.696c-93.728-93.728-93.728-245.696,0-339.424c 93.728-93.728, 245.696-93.728, 339.424,0   c 93.728,93.728, 93.728,245.696,0,339.424C 347.968,471.424, 196.032,471.424, 102.304,377.696z M 390.976,89.024c-6.24-6.24-16.384-6.24-22.624,0   L 192,265.376l0-97.152 c0-8.832-7.168-16-16-16S 160,159.392, 160,168.224L 160,304 l0,0c0,2.080, 0.416,4.16, 1.248,6.112   c 0.768,1.888, 1.92,3.584, 3.328,5.024c 0.064,0.064, 0.064,0.128, 0.128,0.192C 164.736,315.36, 164.768,315.36, 164.8,315.392   c 1.44,1.408, 3.168,2.592, 5.056,3.36C 171.84,319.584, 173.92,320, 176,320l 135.776,0 c 8.832,0, 16-7.168, 16-16c0-8.832-7.168-16-16-16L 214.624,288    l 176.32-176.32C 397.216,105.408, 397.216,95.296, 390.976,89.024z"/>
<glyph unicode="" d="M 102.304,377.696c-93.728-93.728-93.728-245.696,0-339.424c 93.728-93.728, 245.696-93.728, 339.424,0   c 93.728,93.728, 93.728,245.696,0,339.424C 347.968,471.424, 196.032,471.424, 102.304,377.696z M 384,304l0-135.776 c0-8.832-7.168-16-16-16   s-16,7.168-16,16L 352,265.376 l-176.32-176.32c-6.24-6.24-16.384-6.24-22.624,0c-6.24,6.24-6.24,16.384,0,22.624L 329.376,288L 232.224,288    c-8.832,0-16,7.168-16,16c0,8.832, 7.168,16, 16,16L 368,320 c 2.080,0, 4.16-0.416, 6.112-1.248c 3.904-1.632, 7.040-4.736, 8.64-8.64   C 383.584,308.16, 384,306.080, 384,304L 384,304z"/>
<glyph unicode="" d="M 102.304,377.696c-93.728-93.728-93.728-245.696,0-339.424c 93.728-93.728, 245.696-93.728, 339.424,0   c 93.728,93.728, 93.728,245.696,0,339.424C 347.968,471.424, 196.032,471.424, 102.304,377.696z M 384,112c0-0.032,0-0.032,0-0.064   c0-2.080-0.416-4.128-1.216-6.048c-1.632-3.904-4.736-7.040-8.64-8.64C 372.16,96.416, 370.080,96, 368,96L 232.224,96    c-8.832,0-16,7.168-16,16c0,8.832, 7.168,16, 16,16l 97.152,0 l-176.32,176.32c-6.24,6.24-6.24,16.384,0,22.624s 16.384,6.24, 22.624,0   l 176.32-176.32L 352,247.776 c0,8.832, 7.168,16, 16,16s 16-7.168, 16-16L 384,112 z"/>
<glyph unicode="" d="M 102.304,377.696c-93.728-93.728-93.728-245.696,0-339.424c 93.728-93.728, 245.696-93.728, 339.424,0   c 93.728,93.728, 93.728,245.696,0,339.424C 347.968,471.424, 196.032,471.424, 102.304,377.696z M 390.976,304.32L 214.624,128l 97.152,0 c 8.832,0, 16-7.168, 16-16   c0-8.832-7.168-16-16-16L 176,96 c-2.080,0-4.16,0.416-6.112,1.248c-1.92,0.8-3.616,1.952-5.056,3.36   c-0.032,0.032-0.096,0.032-0.128,0.096c-0.064,0.064-0.064,0.128-0.128,0.192c-1.408,1.44-2.56,3.136-3.328,5.024   C 160.448,107.84, 160,109.888, 160,111.936c0,0.032,0,0.032,0,0.064L 160,247.776 c0,8.832, 7.168,16, 16,16S 192,256.608, 192,247.776l0-97.152 l 176.32,176.32   c 6.24,6.24, 16.384,6.24, 22.624,0S 397.216,310.592, 390.976,304.32z"/>
<glyph unicode="" d="M 480,480L 32,480 C 14.336,480,0,465.664,0,448l0-448 c0-17.664, 14.336-32, 32-32l 448,0 c 17.664,0, 32,14.336, 32,32L 512,448 C 512,465.664, 497.664,480, 480,480z    M 224,176l0-128 C 224,39.168, 216.832,32, 208,32S 192,39.168, 192,48l0,89.376 l-100.672-100.672c-6.24-6.24-16.384-6.24-22.624,0   c-6.24,6.24-6.24,16.384,0,22.624L 169.376,160L 80,160 C 71.168,160, 64,167.168, 64,176C 64,184.832, 71.168,192, 80,192l 128,0 c 2.080,0, 4.16-0.416, 6.112-1.248   c 3.904-1.632, 7.040-4.736, 8.64-8.64C 223.584,180.16, 224,178.080, 224,176L 224,176z M 432,288C 440.832,288, 448,280.832, 448,272C 448,263.168, 440.832,256, 432,256l-128,0    C 301.92,256, 299.84,256.416, 297.888,257.248C 295.968,258.016, 294.272,259.168, 292.8,260.608C 292.768,260.64, 292.736,260.64, 292.672,260.672   C 292.64,260.736, 292.608,260.8, 292.576,260.864C 291.168,262.304, 290.016,264, 289.248,265.888C 288.448,267.84, 288,269.888, 288,271.936C 288,271.968, 288,271.968, 288,272l0,128    C 288,408.832, 295.168,416, 304,416S 320,408.832, 320,400l0-89.376 l 100.672,100.672c 6.24,6.24, 16.384,6.24, 22.624,0c 6.24-6.24, 6.24-16.384,0-22.624   L 342.624,288L 432,288 z"/>
<glyph unicode="" d="M 480,480L 32,480 C 14.336,480,0,465.664,0,448l0-448 c0-17.664, 14.336-32, 32-32l 448,0 c 17.664,0, 32,14.336, 32,32L 512,448 C 512,465.664, 497.664,480, 480,480z    M 208,64C 216.832,64, 224,56.832, 224,48C 224,39.168, 216.832,32, 208,32l-128,0 c-2.080,0-4.16,0.416-6.112,1.248   c-1.92,0.8-3.616,1.952-5.056,3.36c-0.032,0.032-0.096,0.032-0.128,0.096c-0.064,0.064-0.064,0.128-0.128,0.192   c-1.408,1.44-2.56,3.136-3.328,5.024C 64.448,43.84, 64,45.888, 64,47.936c0,0.032,0,0.032,0,0.064l0,128 C 64,184.832, 71.168,192, 80,192   S 96,184.832, 96,176l0-89.376 l 100.672,100.672c 6.24,6.24, 16.384,6.24, 22.624,0c 6.24-6.24, 6.24-16.384,0-22.624L 118.624,64L 208,64 z M 448,400l0-128    C 448,263.168, 440.832,256, 432,256S 416,263.168, 416,272L 416,361.376 L 315.328,260.672c-6.24-6.24-16.384-6.24-22.624,0c-6.24,6.24-6.24,16.384,0,22.624   L 393.376,384L 304,384 C 295.168,384, 288,391.168, 288,400C 288,408.832, 295.168,416, 304,416l 128,0 c 2.080,0, 4.16-0.416, 6.112-1.248c 3.904-1.632, 7.040-4.736, 8.64-8.64   C 447.584,404.16, 448,402.080, 448,400L 448,400z"/>
<glyph unicode="" d="M 272-32c 132.544,0, 240,107.456, 240,240S 404.544,448, 272,448S 32,340.544, 32,208S 139.456-32, 272-32z M 156.864,179.424L 260.64,283.2   C 263.776,286.336, 267.872,287.872, 272,287.872c 4.128,0, 8.224-1.536, 11.36-4.672l 103.776-103.776c 6.24-6.24, 6.24-16.384,0-22.624   c-6.24-6.24-16.384-6.24-22.624,0L 272,249.312L 179.488,156.8c-6.24-6.24-16.384-6.24-22.624,0C 150.624,163.040, 150.624,173.184, 156.864,179.424z"/>
<glyph unicode="" d="M 272,448C 139.456,448, 32,340.544, 32,208S 139.456-32, 272-32S 512,75.456, 512,208S 404.544,448, 272,448z M 387.136,236.576L 283.36,132.8   c-3.136-3.136-7.264-4.704-11.36-4.672c-4.128,0-8.224,1.536-11.36,4.672L 156.864,236.576c-6.24,6.24-6.24,16.384,0,22.624   c 6.24,6.24, 16.384,6.24, 22.624,0L 272,166.688L 364.512,259.2c 6.24,6.24, 16.384,6.24, 22.624,0C 393.376,252.96, 393.376,242.816, 387.136,236.576z"/>
<glyph unicode="" d="M 272,448C 139.456,448, 32,340.544, 32,208S 139.456-32, 272-32S 512,75.456, 512,208S 404.544,448, 272,448z M 323.2,115.488   c 6.24-6.24, 6.24-16.384,0-22.624c-6.24-6.24-16.384-6.24-22.624,0L 196.8,196.64C 193.664,199.776, 192.128,203.872, 192.128,208   c0,4.128, 1.536,8.224, 4.672,11.36l 103.776,103.776c 6.24,6.24, 16.384,6.24, 22.624,0c 6.24-6.24, 6.24-16.384,0-22.624L 230.688,208   L 323.2,115.488z"/>
<glyph unicode="" d="M 272,448C 139.456,448, 32,340.544, 32,208S 139.456-32, 272-32S 512,75.456, 512,208S 404.544,448, 272,448z M 347.2,196.64l-103.776-103.776   c-6.24-6.24-16.384-6.24-22.624,0c-6.24,6.24-6.24,16.384,0,22.624L 313.312,208L 220.8,300.512c-6.24,6.24-6.24,16.384,0,22.624   c 6.24,6.24, 16.384,6.24, 22.624,0l 103.776-103.776c 3.136-3.136, 4.704-7.264, 4.672-11.36C 351.872,203.872, 350.336,199.776, 347.2,196.64z"/>
<glyph unicode="" d="M 272,448C 139.456,448, 32,340.544, 32,208S 139.456-32, 272-32S 512,75.456, 512,208S 404.544,448, 272,448z M 391.232,99.072   c-6.272-6.272-16.48-6.272-22.752,0l-95.872,84.8l-95.872-84.8c-6.272-6.272-16.48-6.272-22.752,0c-6.272,6.272-6.272,16.48,0,22.752   l 107.040,94.688c 3.2,3.2, 7.392,4.736, 11.584,4.672C 276.8,221.28, 280.992,219.744, 284.192,216.544l 107.040-94.688   C 397.536,115.552, 397.536,105.376, 391.232,99.072z M 391.232,213.824c-6.272-6.272-16.48-6.272-22.752,0L 272.576,298.656L 176.704,213.824   c-6.272-6.272-16.48-6.272-22.752,0c-6.272,6.272-6.272,16.48,0,22.752l 107.040,94.688c 3.2,3.2, 7.392,4.736, 11.584,4.672   C 276.8,336.032, 280.992,334.496, 284.192,331.296l 107.040-94.688C 397.536,230.304, 397.536,220.128, 391.232,213.824z"/>
<glyph unicode="" d="M 273.056,445.856c-131.968,0-238.944-106.976-238.944-238.944S 141.12-32, 273.056-32S 512,74.976, 512,206.944   S 405.024,445.856, 273.056,445.856z M 390.048,179.392l-107.040-94.688c-3.2-3.2-7.392-4.736-11.584-4.672C 267.2,80, 263.008,81.504, 259.808,84.704   L 152.768,179.392c-6.272,6.272-6.272,16.48,0,22.752c 6.272,6.272, 16.48,6.272, 22.752,0l 95.872-84.8l 95.872,84.8   c 6.272,6.272, 16.48,6.272, 22.752,0S 396.352,185.696, 390.048,179.392z M 390.048,294.144L 283.008,199.456c-3.2-3.2-7.392-4.736-11.584-4.672   C 267.2,194.752, 263.008,196.256, 259.808,199.456L 152.768,294.144c-6.272,6.272-6.272,16.48,0,22.752C 159.040,323.2, 169.248,323.2, 175.52,316.928l 95.872-84.8   l 95.872,84.8c 6.272,6.272, 16.48,6.272, 22.752,0S 396.352,300.448, 390.048,294.144z"/>
<glyph unicode="" d="M 273.152,445.728c-131.904,0-238.848-106.944-238.848-238.848C 34.272,74.944, 141.216-32, 273.152-32   C 405.056-32, 512,74.944, 512,206.848C 512,338.784, 405.056,445.728, 273.152,445.728z M 266.176,89.952c-6.272-6.272-16.48-6.272-22.752,0L 148.704,196.992   c-3.2,3.2-4.736,7.424-4.672,11.616C 144,212.8, 145.504,216.992, 148.704,220.192l 94.688,107.040c 6.272,6.272, 16.48,6.272, 22.752,0   s 6.272-16.48,0-22.752l-84.8-95.872l 84.8-95.872C 272.448,106.432, 272.448,96.224, 266.176,89.952z M 380.928,112.704   c 6.272-6.272, 6.272-16.48,0-22.752s-16.48-6.272-22.752,0L 263.456,196.992c-3.2,3.2-4.736,7.424-4.672,11.616   C 258.752,212.8, 260.256,216.992, 263.456,220.192l 94.688,107.040c 6.272,6.272, 16.48,6.272, 22.752,0s 6.272-16.48,0-22.752l-84.8-95.872L 380.928,112.704z   "/>
<glyph unicode="" d="M 273.152,445.696c-131.904,0-238.848-106.944-238.848-238.848S 141.248-32, 273.152-32S 512,74.944, 512,206.848   S 405.056,445.696, 273.152,445.696z M 163.072,88.768c-6.272,6.272-6.272,16.48,0,22.752l 84.8,95.872l-84.8,95.872   C 156.8,309.568, 156.8,319.776, 163.072,326.048s 16.48,6.272, 22.752,0l 94.688-107.040c 3.2-3.2, 4.736-7.392, 4.672-11.584   C 285.28,203.2, 283.744,199.008, 280.544,195.808l-94.688-107.040C 179.552,82.464, 169.376,82.464, 163.072,88.768z M 395.296,195.808l-94.688-107.040   c-6.272-6.272-16.48-6.272-22.752,0s-6.272,16.48,0,22.752l 84.8,95.872l-84.8,95.872c-6.272,6.272-6.272,16.48,0,22.752   s 16.48,6.272, 22.752,0l 94.688-107.040c 3.2-3.2, 4.736-7.392, 4.672-11.584C 400,203.2, 398.496,199.008, 395.296,195.808z"/>
<glyph unicode="" d="M 272,448C 139.456,448, 32,340.544, 32,208S 139.456-32, 272-32S 512,75.456, 512,208S 404.544,448, 272,448z M 379.584,165.568   l-0.064,0.064C 376.992,162.208, 373.44,160, 369.44,160l-195.52,0 c-3.936,0-7.456,2.080-9.984,5.408C 163.904,165.472, 163.84,165.504, 163.776,165.568   c-5.44,6.944-5.44,18.208,0,25.152l 97.76,123.424c 0.128,0.192, 0.192,0.448, 0.352,0.64c 5.44,6.944, 14.304,6.944, 19.744,0l 97.984-124.064   C 385.056,183.776, 385.056,172.512, 379.584,165.568z"/>
<glyph unicode="" d="M 272,448C 139.456,448, 32,340.544, 32,208S 139.456-32, 272-32S 512,75.456, 512,208S 404.544,448, 272,448z M 379.584,225.28l-97.76-123.424   c-0.128-0.192-0.192-0.448-0.352-0.64c-5.44-6.944-14.304-6.944-19.744,0L 163.776,225.28c-5.44,6.944-5.44,18.208,0,25.152L 163.84,250.368   C 166.368,253.792, 169.92,256, 173.92,256l 195.52,0 c 3.936,0, 7.456-2.080, 9.984-5.408c 0.064-0.064, 0.128-0.064, 0.16-0.128   C 385.056,243.488, 385.056,232.224, 379.584,225.28z"/>
<glyph unicode="" d="M 272,448C 139.456,448, 32,340.544, 32,208S 139.456-32, 272-32S 512,75.456, 512,208S 404.544,448, 272,448z M 320,110.56   c0-3.936-2.080-7.456-5.408-9.984c-0.064-0.064-0.064-0.128-0.128-0.16c-6.944-5.44-18.208-5.44-25.152,0L 165.856,198.144   c-0.192,0.16-0.448,0.192-0.64,0.352c-6.944,5.44-6.944,14.304,0,19.744L 289.28,316.224c 6.944,5.44, 18.208,5.44, 25.152,0L 314.368,316.16   C 317.792,313.632, 320,310.080, 320,306.080L 320,110.56 z"/>
<glyph unicode="" d="M 272,448C 139.456,448, 32,340.544, 32,208S 139.456-32, 272-32S 512,75.456, 512,208S 404.544,448, 272,448z M 378.784,198.4L 254.72,100.416   c-6.944-5.44-18.208-5.44-25.152,0l 0.064,0.064C 226.208,103.008, 224,106.56, 224,110.56l0,195.52 c0,3.936, 2.080,7.456, 5.408,9.984   C 229.472,316.096, 229.504,316.16, 229.568,316.224c 6.944,5.44, 18.208,5.44, 25.152,0l 123.424-97.76c 0.192-0.16, 0.448-0.192, 0.64-0.352   C 385.728,212.672, 385.728,203.84, 378.784,198.4z"/>
<glyph unicode="" d="M 272,448C 139.456,448, 32,340.544, 32,208S 139.456-32, 272-32S 512,75.456, 512,208S 404.544,448, 272,448z M 400,192l-256,0    C 135.168,192, 128,199.168, 128,208C 128,216.832, 135.168,224, 144,224l 256,0 C 408.832,224, 416,216.832, 416,208C 416,199.168, 408.832,192, 400,192z"/>
<glyph unicode="" d="M 272,448C 139.456,448, 32,340.544, 32,208S 139.456-32, 272-32S 512,75.456, 512,208S 404.544,448, 272,448z M 400,192L 288,192 l0-112    C 288,71.168, 280.832,64, 272,64S 256,71.168, 256,80L 256,192 L 144,192 C 135.168,192, 128,199.168, 128,208C 128,216.832, 135.168,224, 144,224L 256,224 L 256,336 C 256,344.832, 263.168,352, 272,352   S 288,344.832, 288,336L 288,224 l 112,0 C 408.832,224, 416,216.832, 416,208C 416,199.168, 408.832,192, 400,192z"/>
<glyph unicode="" d="M 272,448C 139.456,448, 32,340.544, 32,208S 139.456-32, 272-32S 512,75.456, 512,208S 404.544,448, 272,448z M 383.2,296.576L 294.016,207.392   l 78.912-87.968c 6.24-6.24, 6.24-16.384,0-22.624s-16.384-6.24-22.624,0L 271.392,184.768l-87.968-87.968c-6.24-6.24-16.384-6.24-22.624,0   c-6.24,6.24-6.24,16.384,0,22.624l 89.184,89.184L 171.072,296.576c-6.24,6.24-6.24,16.384,0,22.624c 6.24,6.24, 16.384,6.24, 22.624,0   l 78.912-87.968l 87.968,87.968c 6.24,6.24, 16.384,6.24, 22.624,0C 389.44,312.96, 389.44,302.816, 383.2,296.576z"/>
<glyph unicode="" d="M 257.344,480c-141.376,0-256-114.624-256-256s 114.624-256, 256-256s 256,114.624, 256,256S 398.72,480, 257.344,480z M 375.936,294.816l-122.624-187.424   c-0.032-0.032-0.096-0.064-0.096-0.096c-0.64-0.96-0.992-2.048-1.792-2.944c-1.12-1.216-2.56-1.856-3.84-2.784   c-0.32-0.224-0.64-0.48-0.992-0.704c-1.984-1.248-4.032-2.080-6.272-2.624c-0.736-0.192-1.408-0.384-2.176-0.512   c-1.824-0.256-3.552-0.256-5.376-0.064c-1.28,0.096-2.496,0.256-3.744,0.576c-1.28,0.352-2.464,0.896-3.68,1.472   c-1.024,0.48-2.112,0.608-3.072,1.216c-0.704,0.448-1.088,1.152-1.696,1.696c-0.256,0.224-0.576,0.288-0.832,0.512L 148.352,169.152   C 139.264,177.568, 138.72,191.744, 147.104,200.8s 22.56,9.632, 31.648,1.248l 51.68-47.808l 108,165.088c 6.784,10.336, 20.64,13.248, 31.008,6.496   C 379.808,319.040, 382.72,305.152, 375.936,294.816z"/>
<glyph unicode="" d="M 304,480C 189.12,480, 96,386.88, 96,272c0-49.44, 17.312-94.752, 46.112-130.464l-135.584-135.584   c-8.672-8.672-8.672-22.752,0-31.424c 8.672-8.672, 22.752-8.672, 31.424,0l 135.584,135.584C 209.248,81.312, 254.56,64, 304,64   c 114.88,0, 208,93.12, 208,208S 418.88,480, 304,480z M 400,256l-192,0 C 199.168,256, 192,263.168, 192,272C 192,280.832, 199.168,288, 208,288l 192,0 C 408.832,288, 416,280.832, 416,272   C 416,263.168, 408.832,256, 400,256z"/>
<glyph unicode="" d="M 304,480C 189.12,480, 96,386.88, 96,272c0-49.44, 17.312-94.752, 46.112-130.464l-135.584-135.584   c-8.672-8.672-8.672-22.752,0-31.424c 8.672-8.672, 22.752-8.672, 31.424,0l 135.584,135.584C 209.248,81.312, 254.56,64, 304,64   c 114.88,0, 208,93.12, 208,208S 418.88,480, 304,480z M 400,256L 320,256 l0-80 C 320,167.168, 312.832,160, 304,160C 295.168,160, 288,167.168, 288,176L 288,256 L 208,256    C 199.168,256, 192,263.168, 192,272C 192,280.832, 199.168,288, 208,288L 288,288 L 288,368 C 288,376.832, 295.168,384, 304,384C 312.832,384, 320,376.832, 320,368L 320,288 l 80,0    C 408.832,288, 416,280.832, 416,272C 416,263.168, 408.832,256, 400,256z"/>
<glyph unicode="" d="M 256,480C 114.624,480,0,365.376,0,224s 114.624-256, 256-256s 256,114.624, 256,256S 397.376,480, 256,480z M 352,160c0-17.664-14.336-32-32-32L 192,128    c-17.664,0-32,14.336-32,32L 160,288 c0,17.664, 14.336,32, 32,32l 128,0 c 17.664,0, 32-14.336, 32-32L 352,160 z"/>
<glyph unicode="" d="M 480,448L 64,448 C 46.336,448, 32,433.664, 32,416l0-416 c0-17.664, 14.336-32, 32-32l 416,0 c 17.664,0, 32,14.336, 32,32L 512,416 C 512,433.664, 497.664,448, 480,448z    M 400,96l-256,0 C 135.168,96, 128,103.168, 128,112C 128,120.832, 135.168,128, 144,128l 256,0 c 8.832,0, 16-7.168, 16-16C 416,103.168, 408.832,96, 400,96z    M 400,192l-256,0 C 135.168,192, 128,199.168, 128,208C 128,216.832, 135.168,224, 144,224l 256,0 C 408.832,224, 416,216.832, 416,208C 416,199.168, 408.832,192, 400,192z M 400,288l-256,0    C 135.168,288, 128,295.168, 128,304C 128,312.832, 135.168,320, 144,320l 256,0 C 408.832,320, 416,312.832, 416,304C 416,295.168, 408.832,288, 400,288z"/>
<glyph unicode="" d="M 272,448C 139.456,448, 32,340.544, 32,208S 139.456-32, 272-32S 512,75.456, 512,208S 404.544,448, 272,448z M 400,96l-256,0    C 135.168,96, 128,103.168, 128,112C 128,120.832, 135.168,128, 144,128l 256,0 c 8.832,0, 16-7.168, 16-16C 416,103.168, 408.832,96, 400,96z M 400,192l-256,0    C 135.168,192, 128,199.168, 128,208C 128,216.832, 135.168,224, 144,224l 256,0 C 408.832,224, 416,216.832, 416,208C 416,199.168, 408.832,192, 400,192z M 400,288l-256,0    C 135.168,288, 128,295.168, 128,304C 128,312.832, 135.168,320, 144,320l 256,0 C 408.832,320, 416,312.832, 416,304C 416,295.168, 408.832,288, 400,288z"/>
<glyph unicode="" d="M 64-32l 385.344,0 c 17.664,0, 32,14.336, 32,32L 481.344,448 c0,17.664-14.336,32-32,32L 64,480 C 46.336,480, 32,465.664, 32,448l0-448 C 32-17.664, 46.336-32, 64-32z    M 240,384l 129.344,0 c 8.832,0, 16-7.168, 16-16c0-8.832-7.168-16-16-16L 240,352 C 231.168,352, 224,359.168, 224,368C 224,376.832, 231.168,384, 240,384z M 144,288   l 225.344,0 c 8.832,0, 16-7.168, 16-16c0-8.832-7.168-16-16-16L 144,256 C 135.168,256, 128,263.168, 128,272C 128,280.832, 135.168,288, 144,288z M 144,192l 225.344,0    c 8.832,0, 16-7.168, 16-16c0-8.832-7.168-16-16-16L 144,160 C 135.168,160, 128,167.168, 128,176C 128,184.832, 135.168,192, 144,192z M 144,96l 225.344,0    c 8.832,0, 16-7.168, 16-16c0-8.832-7.168-16-16-16L 144,64 C 135.168,64, 128,71.168, 128,80C 128,88.832, 135.168,96, 144,96z"/>
<glyph unicode="" d="M 64,32l 32,0 l0-32 c0-17.664, 14.336-32, 32-32l 320,0 c 17.664,0, 32,14.336, 32,32L 480,384 c0,17.664-14.336,32-32,32l-32,0 L 416,448 c0,17.664-14.336,32-32,32L 64,480    C 46.336,480, 32,465.664, 32,448l0-384 C 32,46.336, 46.336,32, 64,32z M 448,384l0-384 L 128,0 l0,32 l 256,0 c 17.664,0, 32,14.336, 32,32L 416,384 L 448,384 z M 336,416C 344.832,416, 352,408.832, 352,400   C 352,391.168, 344.832,384, 336,384L 206.656,384 c-8.832,0-16,7.168-16,16c0,8.832, 7.168,16, 16,16L 336,416 z M 110.656,320L 336,320    C 344.832,320, 352,312.832, 352,304C 352,295.168, 344.832,288, 336,288L 110.656,288 c-8.832,0-16,7.168-16,16C 94.656,312.832, 101.824,320, 110.656,320z M 110.656,224L 336,224    C 344.832,224, 352,216.832, 352,208C 352,199.168, 344.832,192, 336,192L 110.656,192 c-8.832,0-16,7.168-16,16C 94.656,216.832, 101.824,224, 110.656,224z M 110.656,128   L 336,128 c 8.832,0, 16-7.168, 16-16c0-8.832-7.168-16-16-16L 110.656,96 c-8.832,0-16,7.168-16,16C 94.656,120.832, 101.824,128, 110.656,128z"/>
<glyph unicode="" d="M 480,480L 32,480 C 14.336,480,0,465.664,0,448l0-448 c0-17.664, 14.336-32, 32-32l 448,0 c 17.664,0, 32,14.336, 32,32L 512,448 C 512,465.664, 497.664,480, 480,480z    M 89.184,333.248c-15.904,15.904-15.904,41.664,0,57.568c 15.904,15.904, 41.664,15.904, 57.568,0L 189.12,348.448L 131.552,290.88L 89.184,333.248z    M 329.92,92.512l-164.48,164.48L 223.008,314.56l 164.48-164.48L 416,64L 329.92,92.512z"/>
<glyph unicode="" d="M 480,384l-160,0 C 302.336,384, 288,369.664, 288,352c0,0-4.16-29.344-32-32L 32,320 C 14.336,320,0,306.176,0,288.512L0,0 c0-17.664, 14.336-32, 32-32l 448,0    c 17.664,0, 32,14.336, 32,32L 512,256 L 512,288.512 L 512,352 C 512,369.664, 497.664,384, 480,384z"/>
<glyph unicode="" d="M 480,416l-160,0 C 302.336,416, 288,401.664, 288,384c0,0-4.16-29.344-32-32L 32,352 C 14.336,352,0,338.176,0,320.512L0,288 l 512,0 L 512,320.512 L 512,384    C 512,401.664, 497.664,416, 480,416zM0,0c0-17.664, 14.336-32, 32-32l 448,0 c 17.664,0, 32,14.336, 32,32L 512,256 L0,256 L0,0 z"/>
<glyph unicode="" d="M 480,384l-128,0 c-17.664,0-32-14.336-32-32c0,0-4.16-29.344-32-32L 64,320 C 46.336,320, 32,305.664, 32,288l0-288 c0-17.664, 14.336-32, 32-32l 416,0    c 17.664,0, 32,14.336, 32,32L 512,352 C 512,369.664, 497.664,384, 480,384z M 368,128L 288,128 l0-80 C 288,39.168, 280.832,32, 272,32S 256,39.168, 256,48L 256,128 L 176,128    C 167.168,128, 160,135.168, 160,144C 160,152.832, 167.168,160, 176,160L 256,160 L 256,240 C 256,248.832, 263.168,256, 272,256S 288,248.832, 288,240L 288,160 l 80,0 c 8.832,0, 16-7.168, 16-16   C 384,135.168, 376.832,128, 368,128z"/>
<glyph unicode="" d="M 480,416l-160,0 C 302.336,416, 288,401.664, 288,384c0,0-4.16-29.344-32-32L 32,352 C 14.336,352,0,338.176,0,320.512L0,32 c0-17.664, 14.336-32, 32-32l 192.096,0    l0,160 L 156.192,160 l 99.904,128l 99.904-128L 288.096,160 l0-160 L 480,0 c 17.664,0, 32,14.336, 32,32L 512,288 L 512,320.512 L 512,384 C 512,401.664, 497.664,416, 480,416z"/>
<glyph unicode="" d="M 480,416l-160,0 C 302.336,416, 288,401.664, 288,384c0,0-4.16-29.344-32-32L 32,352 C 14.336,352,0,338.176,0,320.512L0,32 c0-17.664, 14.336-32, 32-32l 448,0    c 17.664,0, 32,14.336, 32,32L 512,288 L 512,320.512 L 512,384 C 512,401.664, 497.664,416, 480,416z M 256.096,0.192l-99.904,128l 67.904,0 l0,128 c0,17.664, 14.336,32, 32,32s 32-14.336, 32-32l0-128 l 67.904,0    L 256.096,0.192z"/>
<glyph unicode="" d="M 256,480C 114.624,480,0,365.376,0,224s 114.624-256, 256-256s 256,114.624, 256,256S 397.376,480, 256,480z M 224,256c0,17.664, 14.336,32, 32,32s 32-14.336, 32-32l0-160    c0-17.664-14.336-32-32-32s-32,14.336-32,32L 224,256 z M 256,319.488c-17.664,0-32,14.336-32,32c0,17.664, 14.336,32, 32,32s 32-14.336, 32-32C 288,333.824, 273.664,319.488, 256,319.488   z"/>
<glyph unicode="" d="M 256-32c 141.376,0, 256,114.624, 256,256s-114.624,256-256,256S0,365.376,0,224S 114.624-32, 256-32z M 288,192c0-17.664-14.336-32-32-32S 224,174.336, 224,192   L 224,352 c0,17.664, 14.336,32, 32,32s 32-14.336, 32-32L 288,192 z M 256,128.512c 17.664,0, 32-14.336, 32-32c0-17.664-14.336-32-32-32s-32,14.336-32,32   C 224,114.176, 238.336,128.512, 256,128.512z"/>
<glyph unicode="" d="M 371.424,470.624C 365.408,476.64, 357.28,480, 348.768,480L 163.232,480 c-8.48,0-16.64-3.36-22.624-9.376l-131.2-131.232   C 3.36,333.408,0,325.28,0,316.768l0-185.568 c0-8.48, 3.36-16.64, 9.376-22.624l 131.2-131.232C 146.592-28.64, 154.72-32, 163.232-32l 185.568,0    c 8.48,0, 16.64,3.36, 22.624,9.376l 131.2,131.232C 508.64,114.592, 512,122.72, 512,131.232L 512,316.768 c0,8.48-3.36,16.64-9.376,22.624L 371.424,470.624z    M 256,160c-17.664,0-32,14.336-32,32L 224,384 c0,17.664, 14.336,32, 32,32s 32-14.336, 32-32l0-192 C 288,174.336, 273.664,160, 256,160z M 288,64c0-17.664-14.336-32-32-32s-32,14.336-32,32   c0,17.664, 14.336,32, 32,32S 288,81.664, 288,64z"/>
<glyph unicode="" d="M 32.992-32l 444.992,0 c 11.232,0, 21.664,5.888, 27.456,15.552c 5.792,9.632, 6.080,21.6, 0.8,31.52l-222.016,416   C 278.688,441.472, 267.84,448, 256.032,448L 256,448 C 244.192,448, 233.376,441.504, 227.808,431.104l-223.008-416c-5.312-9.92-5.024-21.888, 0.736-31.552   C 11.328-26.080, 21.76-32, 32.992-32z M 256,96c 17.664,0, 32-14.336, 32-32c0-17.664-14.336-32-32-32s-32,14.336-32,32C 224,81.664, 238.336,96, 256,96z M 224,159.488   l0,128 c0,17.664, 14.336,32, 32,32s 32-14.336, 32-32l0-128 c0-17.664-14.336-32-32-32S 224,141.824, 224,159.488z"/>
<glyph unicode="" d="M 256-32c 141.376,0, 256,114.624, 256,256s-114.624,256-256,256S0,365.376,0,224S 114.624-32, 256-32z M 256,416c 63.712,0, 128-36.48, 128-118.016   c0-47.456-23.52-84.512-69.888-110.016C 300.672,180.576, 288,165.952, 288,160c0-17.664-14.336-32-32-32s-32,14.336-32,32c0,40.608, 37.248,71.936, 59.264,84.032   C 315.616,261.888, 320,281.344, 320,297.984C 320,344.992, 279.904,352, 256,352C 225.184,352, 192,331.776, 192,287.328c0-17.664-14.336-32-32-32s-32,14.336-32,32   C 128,370.912, 193.952,416, 256,416z M 256,30.592c-18.208,0-32.96,14.752-32.96,32.96s 14.752,32.96, 32.96,32.96s 32.96-14.752, 32.96-32.96S 274.208,30.592, 256,30.592z   "/>
<glyph unicode="" d="M 81.248,88.288C 71.872,64.064, 55.968,32.384, 28.992,0c 51.168,0, 116.992,6.72, 167.712,37.824   C 215.776,34.144, 235.552,32, 256,32c 141.376,0, 256,93.12, 256,208S 397.376,448, 256,448S0,354.88,0,240C0,180.096, 31.36,126.24, 81.248,88.288z"/>
<glyph unicode="" d="M 446.56,291.36c 2.816-12.672, 4.448-25.696, 4.448-39.072c0-103.296-87.68-189.408-203.136-207.904   c 24.416-9.856, 51.776-15.616, 80.928-15.616c 27.488,0, 53.44,5.056, 76.864,13.856c 29.664-10.112, 62.048-12.736, 88.832-12.736   c-13.92,16.704-23.584,33.088-30.496,47.488C 493.696,103.872, 512,138.976, 512,177.632C 512,223.328, 486.496,264.064, 446.56,291.36zM 403.008,252.288C 403.008,342.688, 312.8,416, 201.504,416S0,342.688,0,252.288c0-47.168, 24.672-89.536, 63.968-119.424   c-7.392-19.072-19.904-44-41.12-69.504c 40.256,0, 92.096,5.28, 132,29.792c 15.008-2.912, 30.592-4.608, 46.656-4.608   C 312.8,88.576, 403.008,161.856, 403.008,252.288z"/>
<glyph unicode="" d="M 32,91.936l 73.44,0 c 5.792-5.76, 139.232-118.080, 139.232-118.080c 8.032-4.864, 14.848-6.272, 20.672-5.728   c 11.84,1.12, 20.16,11.040, 22.688,21.504C 288.16-9.344, 288.16,457.344, 288,458.368C 285.504,468.864, 277.152,478.784, 265.344,479.904   C 259.52,480.448, 252.704,479.040, 244.672,474.176c0,0-133.44-116.416-139.232-122.176L 32,352 C 14.336,352,0,337.664,0,320l0-4.064 L0,128 l0-4.064    C0,106.24, 14.336,91.936, 32,91.936zM 506.272,306.848c-7.616,7.616-20,7.616-27.616,0l-55.232-55.232l-55.232,55.232   c-7.616,7.616-20,7.616-27.616,0c-7.616-7.616-7.616-20,0-27.616L 395.808,224l-55.232-55.232c-7.616-7.616-7.616-20,0-27.616   c 7.616-7.616, 20-7.616, 27.616,0l 55.232,55.232l 55.232-55.232c 7.616-7.616, 20-7.616, 27.616,0c 7.616,7.616, 7.616,20,0,27.616   L 451.040,224l 55.232,55.232C 513.92,286.848, 513.92,299.232, 506.272,306.848z"/>
<glyph unicode="" d="M 329.344,479.904C 323.52,480.448, 316.704,479.040, 308.672,474.176c0,0-133.44-116.416-139.232-122.176L 96,352 C 78.336,352, 64,337.664, 64,320l0-4.064    L 64,128 l0-4.064 c0-17.664, 14.336-32, 32-32l 73.44,0 c 5.792-5.76, 139.232-118.080, 139.232-118.080c 8.032-4.864, 14.848-6.272, 20.672-5.728   c 11.84,1.12, 20.16,11.040, 22.688,21.504c 0.16,1.024, 0.16,467.744,0,468.736C 349.504,468.864, 341.152,478.784, 329.344,479.904zM 401.312,168.096c-7.904-4-11.072-13.6-7.104-21.504c 2.816-5.568, 8.448-8.8, 14.272-8.8   c 2.432,0, 4.864,0.544, 7.2,1.696C 448.032,155.808, 468.128,188.16, 468.128,224s-20.096,68.192-52.448,84.512   c-7.904,4-17.504,0.8-21.472-7.104c-3.968-7.904-0.8-17.504, 7.104-21.504C 422.784,269.088, 436.128,247.68, 436.128,224   S 422.784,178.912, 401.312,168.096z"/>
<glyph unicode="" d="M 32,91.936l 73.44,0 c 5.792-5.76, 139.232-118.080, 139.232-118.080c 8.032-4.864, 14.848-6.272, 20.672-5.728   c 11.84,1.12, 20.16,11.040, 22.688,21.504C 288.16-9.344, 288.16,457.344, 288,458.368C 285.504,468.864, 277.152,478.784, 265.344,479.904   C 259.52,480.448, 252.704,479.040, 244.672,474.176c0,0-133.44-116.416-139.232-122.176L 32,352 C 14.336,352,0,337.664,0,320l0-4.064 L0,128 l0-4.064    C0,106.24, 14.336,91.936, 32,91.936zM 337.312,168.096c-7.904-4-11.072-13.6-7.104-21.504c 2.816-5.568, 8.448-8.8, 14.272-8.8   c 2.432,0, 4.864,0.544, 7.2,1.696C 384.032,155.808, 404.128,188.16, 404.128,224s-20.096,68.192-52.448,84.512   c-7.904,4-17.472,0.8-21.472-7.104c-3.968-7.904-0.8-17.504, 7.104-21.504C 358.784,269.088, 372.128,247.68, 372.128,224   S 358.784,178.912, 337.312,168.096zM 315.296,40.352c 1.504-7.648, 8.192-12.928, 15.68-12.928c 1.024,0, 2.048,0.096, 3.104,0.288   C 427.904,46.016, 496,128.576, 496,224s-68.096,177.984-161.952,196.288C 325.504,422.016, 316.96,416.32, 315.296,407.648   C 313.6,398.976, 319.264,390.56, 327.936,388.864C 406.784,373.504, 464,304.16, 464,224s-57.216-149.504-136.064-164.864   C 319.264,57.44, 313.6,49.024, 315.296,40.352z"/>
<glyph unicode="" d="M 256,480C 114.624,480,0,365.376,0,224s 114.624-256, 256-256s 256,114.624, 256,256S 397.376,480, 256,480z M 384.416,228.672   c-1.984-32.832-16.8-81.984-76.096-129.824c-2.848-2.272-6.176-3.392-9.504-3.392c-4.64,0-9.216,2.144-12.256,6.24   c-5.248,7.040-4.032,17.152, 2.752,22.592c 48.288,38.944, 61.504,77.088, 63.84,103.264c-6.816-3.968-14.528-6.4-22.88-6.4   c-26.048,0-47.136,21.92-47.136,48.96c0,27.040, 21.088,48.96, 47.136,48.96c 5.888,0, 11.296-1.536, 16.448-3.616L 346.528,315.84   c0,0, 2.272-0.832, 5.44-2.592c 0.16-0.096, 0.32-0.128, 0.48-0.192c 0.096-0.064, 0.16-0.128, 0.256-0.192   c 2.176-1.248, 4.672-2.912, 7.456-5.28c 1.184-1.024, 2.176-2.208, 3.264-3.328C 375.040,292.704, 387.776,270.656, 384.416,228.672z M 175.104,221.152   c-26.048,0-47.136,21.92-47.136,48.96c0,27.040, 21.12,48.96, 47.136,48.96c 5.888,0, 11.296-1.536, 16.448-3.616L 191.392,315.84   c0,0, 2.272-0.832, 5.44-2.592c 0.16-0.096, 0.32-0.128, 0.48-0.192c 0.096-0.064, 0.16-0.128, 0.256-0.192   C 199.744,311.616, 202.24,309.952, 205.024,307.584c 1.184-1.024, 2.176-2.208, 3.264-3.328c 11.616-11.552, 24.384-33.6, 20.992-75.616   c-1.984-32.832-16.8-81.984-76.096-129.824c-2.848-2.272-6.176-3.392-9.504-3.392c-4.64,0-9.216,2.144-12.256,6.24   c-5.248,7.040-4.032,17.152, 2.752,22.592c 48.288,38.944, 61.504,77.088, 63.84,103.264C 191.168,223.616, 183.456,221.152, 175.104,221.152z"/>
<glyph unicode="" d="M 104.128,375.872c-93.312-93.312-93.312-244.608,0-337.888s 244.608-93.312, 337.888,0c 93.312,93.312, 93.312,244.608,0,337.888   C 348.704,469.184, 197.408,469.184, 104.128,375.872z M 400,192L 272.64,192 C 272.416,192, 272.224,191.872, 272,191.872c-8.832,0-16,7.168-16,16L 256,368    C 256,376.832, 263.168,384, 272,384S 288,376.832, 288,368L 288,224 l 112,0 C 408.832,224, 416,216.832, 416,208C 416,199.168, 408.832,192, 400,192z"/>
<glyph unicode="" d="M 256,480C 166.272,480, 93.536,407.264, 93.536,317.536L 93.536,288 L 64,288 C 46.336,288, 32,273.664, 32,256l0-256 c0-17.664, 14.336-32, 32-32l 384,0    c 17.664,0, 32,14.336, 32,32L 480,256 c0,17.664-14.336,32-32,32l-29.536,0 L 418.464,317.536 C 418.464,407.264, 345.728,480, 256,480z M 157.536,317.536C 157.536,371.84, 201.696,416, 256,416   s 98.464-44.16, 98.464-98.464L 354.464,288 L 157.536,288 L 157.536,317.536 z M 256,64c-35.36,0-64,28.64-64,64c0,35.36, 28.64,64, 64,64s 64-28.64, 64-64C 320,92.64, 291.36,64, 256,64z"/>
<glyph unicode="" d="M 416,288L 125.536,288 L 125.536,317.536 C 125.536,371.84, 169.696,416, 224,416c 35.776,0, 66.912-19.328, 84.128-47.968  c 0.16,0.192, 0.448,0.288, 0.64,0.48c 5.792-8.256, 14.912-14.016, 25.76-14.016c 17.664,0, 32,14.336, 32,32c0,4.32-0.896,8.448-2.464,12.224  c-0.128,0.224-0.224,0.48-0.352,0.704c-1.408,3.2-3.424,6.016-5.76,8.544C 328.832,451.2, 280.064,480, 224,480C 134.272,480, 61.536,407.264, 61.536,317.536  L 61.536,288 L 32,288 C 14.336,288,0,273.664,0,256l0-256 c0-17.664, 14.336-32, 32-32l 384,0 c 17.664,0, 32,14.336, 32,32L 448,256 C 448,273.664, 433.664,288, 416,288z M 224,64c-35.36,0-64,28.64-64,64  s 28.64,64, 64,64s 64-28.64, 64-64S 259.36,64, 224,64z"/>
<glyph unicode="" d="M 496,480l-64,0 c-3.872,0-7.616-1.408-10.56-3.968L 200.576,282.4C 189.152,284.8, 171.488,288, 160,288c-88.224,0-160-71.776-160-160   s 71.776-160, 160-160s 160,71.776, 160,160c0,26.208-4.992,43.776-10.656,58.368l 54.464,18.496c 6.624,2.24, 11.008,8.544, 10.848,15.52l-1.344,60.736   l 61.12,4.256c 8.192,0.576, 14.624,7.264, 14.88,15.456l 2.272,72.928l 47.872,10.624C 506.784,385.984, 512,392.512, 512,400l0,64    C 512,472.832, 504.832,480, 496,480z M 112,128c 19.2,0, 35.776-11.296, 43.456-27.584C 158.368,94.208, 160,87.296, 160,80C 160,53.504, 138.496,32, 112,32   S 64,53.504, 64,80S 85.504,128, 112,128z"/>
<glyph unicode="" d="M 416,224c-1.12,0-2.176-0.288-3.264-0.32C 414.88,234.112, 416,244.928, 416,256c0,88.352-71.648,160-160,160S 96,344.352, 96,256   c0-0.544, 0.16-1.056, 0.16-1.6C 41.888,246.656,0,200.416,0,144c0-56.384, 41.792-102.56, 96-110.4L 96,32 l 320,0 c 53.024,0, 96,42.976, 96,96S 469.024,224, 416,224z   "/>
<glyph unicode="" d="M 416,224c-1.12,0-2.176-0.288-3.264-0.32C 414.88,234.112, 416,244.928, 416,256c0,88.352-71.648,160-160,160S 96,344.352, 96,256  c0-0.544, 0.16-1.056, 0.16-1.6C 41.888,246.656,0,200.416,0,144C0,82.144, 50.144,32, 112,32l 80.256,0 C 209.792,32, 224,46.208, 224,63.744L 224,160 L 156.096,160   L 256,288l 99.904-128L 288,160 l0-96.256 C 288,46.208, 302.208,32, 319.744,32L 416,32 c 53.024,0, 96,42.976, 96,96S 469.024,224, 416,224z"/>
<glyph unicode="" d="M 416,224c-1.12,0-2.176-0.288-3.264-0.32C 414.88,234.112, 416,244.928, 416,256c0,88.352-71.648,160-160,160S 96,344.352, 96,256   c0-0.544, 0.16-1.056, 0.16-1.6C 41.888,246.656,0,200.416,0,144c0-56.384, 41.792-102.56, 96-110.4L 96,32 l 160,0 l-99.904,128L 224,160 L 224,288 c0,17.664, 14.336,32, 32,32   s 32-14.336, 32-32l0-128 l 67.904,0 L 256,32l 160,0 c 53.024,0, 96,42.976, 96,96S 469.024,224, 416,224z"/>
<glyph unicode="" d="M 434.816,221.504c 2.272,6.080, 4.16,12.352, 5.792,18.656c 0.288,1.088, 0.64,2.112, 0.896,3.2   c 1.44,5.92, 2.464,11.968, 3.328,18.048c 0.192,1.408, 0.544,2.816, 0.704,4.224C 446.4,273.024, 446.88,280.48, 446.88,288c0,105.856-86.144,192-192,192   s-192-86.144-192-192c0-7.52, 0.48-14.976, 1.376-22.336C 64.416,264.224, 64.736,262.848, 64.928,261.44c 0.864-6.080, 1.888-12.128, 3.328-18.048   c 0.256-1.088, 0.608-2.144, 0.896-3.2c 1.632-6.304, 3.52-12.576, 5.792-18.656c 0.224-0.576, 0.48-1.152, 0.672-1.728   c 2.528-6.56, 5.344-12.992, 8.576-19.232C 84.32,200.32, 84.448,200.096, 84.576,199.872c 3.36-6.464, 7.072-12.736, 11.168-18.816   c 0.128-0.192, 0.256-0.352, 0.352-0.544c 4-5.92, 8.352-11.584, 12.992-17.056c 0.384-0.448, 0.736-0.864, 1.12-1.312   c 4.224-4.896, 8.8-9.536, 13.536-14.016c 1.056-0.992, 2.048-1.984, 3.136-2.944c 1.408-1.248, 2.656-2.656, 4.128-3.872   c 0.864-0.736, 1.92-1.216, 2.88-1.824c 3.168-2.624, 6.176-5.376, 9.536-7.808c 1.344-0.96, 2.176-1.888, 3.328-2.848   C 168.832,110.496, 158.048,96, 182.624,96c 3.424,0, 112.256,0, 144.512,0c 24.544,0, 13.792,14.496, 35.904,32.832c 1.152,0.96, 1.984,1.856, 3.328,2.848   c 3.36,2.432, 6.368,5.184, 9.536,7.808c 0.928,0.64, 1.984,1.088, 2.88,1.824c 1.44,1.216, 2.72,2.624, 4.128,3.872   c 1.056,0.96, 2.080,1.984, 3.136,2.944c 4.736,4.48, 9.28,9.12, 13.536,14.016c 0.384,0.448, 0.736,0.864, 1.12,1.312   c 4.64,5.472, 8.992,11.136, 12.992,17.056c 0.128,0.192, 0.256,0.352, 0.352,0.544c 4.064,6.048, 7.776,12.32, 11.136,18.784   c 0.128,0.224, 0.256,0.48, 0.384,0.704c 3.232,6.24, 6.048,12.672, 8.576,19.232C 434.336,220.384, 434.592,220.928, 434.816,221.504z M 368,286.496   c-8.832,0-16,7.168-16,16C 352,351.264, 308,384, 272,384C 263.168,384, 256,391.168, 256,400S 263.168,416, 272,416C 327.008,416, 384,375.488, 384,302.496   C 384,293.664, 376.832,286.496, 368,286.496zM 252.928,0L 217.76,0 L 182.624,0 l 57.696-29.504c 4.576-2.336, 9.568-3.52, 14.56-3.52c 4.928,0, 9.888,1.152, 14.432,3.424   L 327.84,0L 292.352,0 L 256.864,0 L 252.928,0 zM 352,48c0,8.832-7.168,16-16,16l-160,0 C 167.168,64, 160,56.832, 160,48C 160,39.168, 167.168,32, 176,32l 160,0    C 344.832,32, 352,39.168, 352,48z"/>
<glyph unicode="" d="M 480,352L 289.344,352 l0-96 L 512,256 L 512,320 C 512,337.664, 497.664,352, 480,352zM 32,352C 14.336,352,0,337.664,0,320l0-64 l 224,0 L 224,352 L 32,352 zM 32,224l0-224 c0-17.664, 14.336-32, 32-32l 160,0 L 224,224 L 32,224 zM 448-32c 17.664,0, 32,14.336, 32,32L 480,224 L 289.344,224 l0-256 L 448-32 zM 255.968,384.256l 0.096,0 C 256.032,384.192, 256,384.064, 256,384l 33.344,0 C 317.664,384, 357.76,384, 384,384c 44.192,0, 64,21.504, 64,48   S 428.192,480, 384,480c-41.376,0-73.952-18.624-96-40.224C 278.336,445.504, 267.168,448.992, 255.072,448.992c-11.584,0-22.304-3.264-31.712-8.576   C 201.344,461.76, 168.96,480, 128,480C 83.808,480, 64,458.496, 64,432S 83.808,384, 128,384c 26.656,0, 67.616,0, 96,0l 32,0 C 256,384.064, 255.968,384.192, 255.968,384.256z M 416,432   C 416,418.784, 398.592,416, 384,416L 311.328,416 C 311.072,416.448, 310.848,416.928, 310.592,417.344C 326.848,433.152, 351.488,448, 384,448C 398.592,448, 416,445.216, 416,432z M 96,432   C 96,445.216, 113.408,448, 128,448c 31.808,0, 55.936-14.24, 72.192-29.504C 199.68,417.696, 199.296,416.832, 198.816,416L 128,416 C 113.408,416, 96,418.784, 96,432z"/>
<glyph unicode="" d="M 26.496,195.904L 256,394.816l 229.504-198.912C 488.544,193.28, 492.288,192, 496,192c 4.48,0, 8.928,1.888, 12.096,5.504   c 5.792,6.688, 5.056,16.768-1.6,22.592l-240,208c-6.016,5.216-14.944,5.216-20.96,0L 160,353.984L 160,384 c0,17.664-14.336,32-32,32S 96,401.664, 96,384l0-85.472    L 5.504,220.096c-6.656-5.792-7.392-15.904-1.6-22.592C 9.728,190.848, 19.808,190.112, 26.496,195.904zM 192,128l 128,0 l0-160 l 96,0 c 17.664,0, 32,14.336, 32,32l0,156.832 c0,9.6-4.288,18.656-11.712,24.736l-160,131.168C 270.4,317.568, 263.2,320, 256,320   C 248.8,320, 241.6,317.568, 235.712,312.736l-160-131.168C 68.288,175.52, 64,166.432, 64,156.832L 64,0 c0-17.664, 14.336-32, 32-32l 96,0 L 192,128 z"/>
<glyph unicode="" d="M 480,320l-64,0 c0,0-18.496,0-32,32c-6.88,16.288-14.336,32-32,32L 224,384 C 206.336,384, 198.656,368.384, 192,352C 179.008,320, 160,320, 160,320L 128,320    c0,17.664-14.336,32-32,32L 64,352 C 46.336,352, 32,337.664, 32,320C 14.336,320,0,305.664,0,288l0-64 l 177.76,0 C 199.936,262.112, 240.736,288, 288,288s 88.064-25.888, 110.24-64L 512,224 L 512,288    C 512,305.664, 497.664,320, 480,320z M 112,256l-64,0 C 39.168,256, 32,263.168, 32,272C 32,280.832, 39.168,288, 48,288L 64,288 l 32,0 l 16,0 C 120.832,288, 128,280.832, 128,272   C 128,263.168, 120.832,256, 112,256zM 192,160A96,96 1260 1 1 384,160A96,96 1260 1 1 192,160zM 416,160c0-70.688-57.312-128-128-128c-70.688,0-128,57.312-128,128c0,11.104, 1.856,21.728, 4.512,32L0,192 l0-160 c0-17.664, 14.336-32, 32-32l 448,0    c 17.664,0, 32,14.336, 32,32L 512,192 l-100.512,0 C 414.144,181.728, 416,171.104, 416,160z"/>
<glyph unicode="" d="M 480,352L 32,352 C 14.336,352,0,337.664,0,320l0-53.728 l 256-102.4l 256,102.4L 512,320 C 512,337.664, 497.664,352, 480,352zM0,214.016L0,0 c0-17.664, 14.336-32, 32-32l 448,0 c 17.664,0, 32,14.336, 32,32L 512,214.016 l-256-102.4L0,214.016z"/>
<glyph unicode="" d="M 347.136,288L 286.144,458.752C 281.6,471.488, 269.536,480, 256,480S 230.4,471.488, 225.856,458.752L 164.864,288L 347.136,288 zM 427.136,64L 381.408,192L 130.592,192L 84.864,64  zM 32,32c-17.664,0-32-14.336-32-32c0-17.664, 14.336-32, 32-32l 64,0 l 320,0 l 64,0 c 17.664,0, 32,14.336, 32,32c0,17.664-14.336,32-32,32L 32,32 z"/>
<glyph unicode="" d="M 64,384l0-384 c0-12.928, 7.808-24.608, 19.744-29.568C 87.712-31.2, 91.872-32, 96-32c 8.32,0, 16.512,3.264, 22.624,9.376   L 256,114.752l 137.376-137.376C 399.488-28.736, 407.68-32, 416-32c 4.128,0, 8.288,0.8, 12.224,2.432C 440.192-24.608, 448-12.928, 448,0L 448,384 L 64,384 zM 448,416L 448,448 c0,17.664-14.336,32-32,32L 96,480 C 78.336,480, 64,465.664, 64,448l0-32 L 448,416 z"/>
<glyph unicode="" d="M 96-32l 320,0 c 17.664,0, 32,14.336, 32,32L 448,352 c0,17.664-14.336,32-32,32l-64.16,0 C 351.072,437.152, 308.512,480, 256,480S 160.928,437.152, 160.16,384   L 96,384 C 78.336,384, 64,369.664, 64,352l0-352 C 64-17.664, 78.336-32, 96-32z M 304,288l-96,0 C 199.168,288, 192,295.168, 192,304C 192,312.832, 199.168,320, 208,320l 96,0    C 312.832,320, 320,312.832, 320,304C 320,295.168, 312.832,288, 304,288z M 256,448c 34.784,0, 63.072-28.576, 63.84-64L 192.16,384 C 192.928,419.424, 221.216,448, 256,448z"/>
<glyph unicode="" d="M 480,352L 96,352 C 93.504,352, 91.328,351.136, 88.992,350.592L 76.576,403.648C 74.88,410.88, 68.448,416, 60.992,416L 15.072,416    c-8.832,0-16-7.168-16-16S 6.208,384, 15.072,384L 48.32,384 l 19.872-84.992L 96,160c0-1.152, 0.544-2.144, 0.672-3.264l-16.288-73.28   c-1.056-4.736, 0.096-9.696, 3.136-13.472C 86.56,66.176, 91.136,64, 96,64l 363.008,0 c 8.832,0, 16,7.168, 16,16s-7.168,16-16,16L 115.968,96    l 7.328,32.96C 124.896,128.704, 126.336,128, 128,128l 291.68,0 c 17.664,0, 28.32,3.488, 36.832,24l 51.968,159.424C 517.504,340, 497.696,352, 480,352zM 96,0A32,32 1260 1 1 160,0A32,32 1260 1 1 96,0zM 384,0A32,32 1260 1 1 448,0A32,32 1260 1 1 384,0z"/>
<glyph unicode="" d="M 464.928,447.84c-0.288,0-0.576,0-0.864,0c-0.256,0-0.48,0.032-0.736,0L 262.144,447.84    C 257.248,447.616, 246.112,439.968, 244.672,438.528L 9.344,203.2c-12.48-12.48-12.48-32.704,0-45.184l 180.672-180.672C 196.288-28.896, 204.448-32, 212.608-32   c 8.16,0, 16.352,3.104, 22.592,9.344l 235.328,235.328C 471.968,214.112, 480,224, 480,230.144L 480,431.968 C 480.448,440.896, 473.696,447.84, 464.928,447.84z M 432,384   C 423.168,384, 416,391.168, 416,400C 416,408.832, 423.168,416, 432,416S 448,408.832, 448,400C 448,391.168, 440.832,384, 432,384z"/>
<glyph unicode="" d="M 464.928,480c-0.288,0-0.576,0-0.864,0c-0.256,0-0.48,0.032-0.736,0L 294.144,480    C 289.248,479.744, 278.112,472.096, 276.672,470.656L 72.992,267.008c-12.48-12.48-12.48-32.704,0-45.184l 25.408-25.408L 72.992,171.008   c-12.48-12.48-12.48-32.704,0-45.184l 148.672-148.672c 6.24-6.24, 14.4-9.344, 22.592-9.344s 16.352,3.104, 22.592,9.344l 203.648,203.68   C 471.968,182.272, 480,192.128, 480,198.272l0,96 L 480,368.096 l0,96 C 480.448,473.024, 473.696,480, 464.928,480z M 432,448.128c 8.832,0, 16-7.168, 16-16   s-7.168-16-16-16S 416,423.296, 416,432.128S 423.168,448.128, 432,448.128z M 447.904,203.424l-203.584-203.68l-148.672,148.608l 25.408,25.408l 100.64-100.64   c 6.24-6.24, 14.4-9.344, 22.592-9.344s 16.352,3.104, 22.592,9.344L 448,254.272l0-50.592 C 447.904,203.52, 447.84,203.424, 447.904,203.424   C 447.872,203.424, 447.872,203.424, 447.904,203.424z"/>
<glyph unicode="" d="M 416,448l-64,0 c0,17.664-14.336,32-32,32L 224,480 C 206.336,480, 192,465.664, 192,448L 128,448 C 110.336,448, 96,433.664, 96,416l 352,0 C 448,433.664, 433.664,448, 416,448zM 96,0c0-17.664, 14.336-32, 32-32l 288,0 c 17.664,0, 32,14.336, 32,32L 448,384 L 96,384 L 96,0 z M 352,304C 352,312.832, 359.168,320, 368,320   S 384,312.832, 384,304l0-256 c0-8.832-7.168-16-16-16S 352,39.168, 352,48L 352,304 z M 256,304C 256,312.832, 263.168,320, 272,320S 288,312.832, 288,304l0-256    C 288,39.168, 280.832,32, 272,32S 256,39.168, 256,48L 256,304 z M 160,304C 160,312.832, 167.168,320, 176,320S 192,312.832, 192,304l0-256 C 192,39.168, 184.832,32, 176,32   S 160,39.168, 160,48L 160,304 z"/>
<glyph unicode="" d="M 424.96,139.648c 3.424,5.856, 2.816,13.216-1.568,18.4L 157.248,474.304C 152.896,479.456, 145.792,481.344, 139.52,479.040   C 133.216,476.736, 128.992,470.72, 128.992,464l0-417.504 c0-6.912, 4.416-13.024, 10.976-15.2c 1.632-0.544, 3.328-0.8, 5.024-0.8   c 4.96,0, 9.76,2.304, 12.832,6.464l 71.552,96.384l 49.632-141.984c 6.368-18.176, 26.272-27.776, 44.448-21.408s 27.776,26.272, 21.408,44.448   l-48.704,139.296l 111.936-21.664C 414.848,130.72, 421.536,133.824, 424.96,139.648z"/>
<glyph unicode="" d="M 224,67.072L 224,0 L 176,0 C 167.168,0, 160-7.168, 160-16C 160-24.832, 167.168-32, 176-32l 79.68,0 L 256.32-32 l 79.68,0    c 8.832,0, 16,7.168, 16,16c0,8.832-7.168,16-16,16L 288,0 l0,67.264 c 66.656,13.152, 128,67.104, 128,156.736L 416,272 C 416,280.832, 408.832,288, 400,288   S 384,280.832, 384,272L 384,224 c0-84.032-64.416-128-128-128c-61.664,0-128,40.064-128,128L 128,272 C 128,280.832, 120.832,288, 112,288S 96,280.832, 96,272L 96,224    C 96,133.12, 156.256,79.808, 224,67.072zM 256,160c 35.36,0, 64,28.64, 64,64L 320,416 c0,35.36-28.64,64-64,64S 192,451.36, 192,416l0-192 C 192,188.64, 220.64,160, 256,160z"/>
<glyph unicode="" d="M 256,480C 114.624,480,0,365.376,0,224s 114.624-256, 256-256s 256,114.624, 256,256S 397.376,480, 256,480z M 381.568,327.52l-37.184-59.584L 319.584,228.192   C 319.68,226.784, 320,225.44, 320,224c0-35.36-28.64-64-64-64c-1.44,0-2.784,0.32-4.192,0.416l-39.776-24.8l-59.552-37.184   C 149.888,96.8, 146.944,96, 144,96c-4.128,0-8.224,1.6-11.328,4.672c-5.28,5.28-6.208,13.472-2.24,19.776l 37.184,59.584l 24.8,39.744   C 192.32,221.216, 192,222.56, 192,224c0,35.36, 28.64,64, 64,64c 1.44,0, 2.784-0.32, 4.192-0.416l 39.776,24.8l 59.552,37.184   c 6.208,3.936, 14.496,3.008, 19.776-2.272C 384.608,342.048, 385.536,333.856, 381.568,327.52zM 224,224A32,32 1260 1 1 288,224A32,32 1260 1 1 224,224z"/>
<glyph unicode="" d="M 244.352-23.328c 2.688-2.976, 5.28-4.896, 7.776-6.24c 0.032-0.032, 0.096-0.032, 0.128-0.064   c 1.728-0.896, 3.424-1.568, 5.024-1.568c 1.6,0, 3.296,0.672, 5.024,1.568c 0.032,0.032, 0.096,0.032, 0.128,0.064   c 2.496,1.344, 5.088,3.264, 7.776,6.24c0,0, 148.736,161.76, 163.68,301.92c 0.896,7.232, 1.504,14.56, 1.504,22.016C 435.392,399.68, 355.072,480, 256,480   S 76.608,399.68, 76.608,300.608c0-7.584, 0.608-14.976, 1.536-22.304C 93.472,138.208, 244.352-23.328, 244.352-23.328z M 256,416   c 63.616,0, 115.392-51.776, 115.392-115.392c0-63.616-51.776-115.392-115.392-115.392S 140.608,236.992, 140.608,300.608C 140.608,364.224, 192.384,416, 256,416z"/>
<glyph unicode="" d="M 128,167.776c0-24.544, 61.76-37.568, 128.032-39.392C 256.032,128.256, 256,128.128, 256,128l0-96 c0-17.664, 7.168-64, 16-64   S 288,14.336, 288,32l0,96 c0,0.128-0.032,0.256-0.032,0.384C 354.24,130.208, 416,143.232, 416,167.776c0,26.048-23.584,45.056-64,55.296L 352,388.8    c 40.416,13.696, 64,35.744, 64,51.424c0,53.024-288,53.024-288,0c0-17.248, 23.584-38.816, 64-52l0-165.152 C 151.584,212.8, 128,193.824, 128,167.776z"/>
<glyph unicode="" d="M 161.344,387.136L 32,448L 32,64L 161.344,3.136  zM 193.344,3.584L 320.672,60.96L 320.672,444.96L 193.344,387.584  zM 352.672,60.288L 480,0L 480,384L 352.672,444.288  z"/>
<glyph unicode="" d="M 448,416c-8.992,20-25.312,32-43.008,32L 104,448 C 86.336,448, 72,436, 64,416l-64-256l0-0.512 l0-16 l0-16 l0-17.152 l0-0.512 l0-94.336    c0-8.832, 7.168-16, 16-16l 480,0 c 8.832,0, 16,7.168, 16,16L 512,111.36 l0,0.512 l0,15.616 l0,16 l0,14.528 l-0.416,1.472L 448,416z M 94.24,405.344   C 95.712,408.64, 99.456,416, 104,416l 300.992,0 c 4.384,0, 9.44-4.512, 12.992-11.392l 56.352-229.024c0-0.064-0.096,0-0.096-0.064   c0-8.832-7.168-16-16-16c-0.032,0-0.032-0.032-0.064-0.032L 416,159.488 l-80,0 c-8.832,0-16-7.168-16-16L 320,112 c0-8.832-7.168-16-16-16   c-0.32,0-0.64-0.416-0.96-0.512L 208.544,95.488 C 208.32,95.584, 208.32,96, 208,96C 199.168,96, 192,103.168, 192,112l0,31.488 c0,8.832-7.168,16-16,16L 64,159.488    L 53.824,159.488 c-0.032,0-0.032,0.032-0.064,0.032c-8.832,0-16.256,7.168-16.256,16c0,0.224-0.256,0.064-0.32,0.224L 94.24,405.344z"/>
<glyph unicode="" d="M 480,320l-128,0 L 352,352 c0,17.664-14.336,32-32,32L 192,384 C 174.336,384, 160,369.664, 160,352l0-32 L 32,320 C 14.336,320,0,305.664,0,288l0-64 l 192,0 l 128,0 l 192,0 L 512,288    C 512,305.664, 497.664,320, 480,320z M 192,352l 128,0 l0-32 L 192,320 L 192,352 zM 192,192L 320,192L 320,160L 192,160zM 352,160c0-17.664-14.336-32-32-32L 192,128 c-17.664,0-32,14.336-32,32L 160,192 L0,192 l0-192 c0-17.664, 14.336-32, 32-32l 448,0 c 17.664,0, 32,14.336, 32,32L 512,192 l-160,0    L 352,160 z"/>
<glyph unicode="" d="M 80.672-32l 14.592,0 l 192.096,0 L 320-32 l 11.328,0 l 51.904,0 c 17.664,0, 32,14.336, 32,32l0,68.992 L 415.232,80 l0,256 c0,8.832-7.168,16-16,16   c0,0,0,0,0,0L 128,352 C 127.2,352, 125.632,351.872, 124.128,351.776L 80.672,352C 53.824,352, 32,372.512, 32,399.328C 32,426.176, 53.152,448, 80,448l 64,0 L 320,448 l 128,0 l0-368    c0-8.832, 6.4-16, 15.264-16S 480,71.168, 480,80l0,384 C 480,472.832, 472.096,480, 463.264,480l-111.648,0 L 144,480 L 80.672,480 C 36.512,480, 0.768,444.512, 0.128,400.512   L0,400.672l0-66.656 L0,288 l0-175.328 l0-39.584 l0-24.416 C0,4.128, 36.128-32, 80.672-32z"/>
<glyph unicode="" d="M 32,480C 14.336,480,0,465.664,0,448l0-448 c0-17.664, 14.336-32, 32-32l 32,0 L 64,480 L 32,480 zM 416,480L 96,480 l0-512 l 320,0 c 17.664,0, 32,14.336, 32,32L 448,448 C 448,465.664, 433.664,480, 416,480z M 270.24,356.672   c 26.752,0, 48.416-21.696, 48.416-48.416c0-26.752-21.696-48.448-48.416-48.448c-26.752,0-48.448,21.696-48.448,48.448   C 221.792,335.008, 243.488,356.672, 270.24,356.672z M 192,134.176c0,58.688, 35.488,106.24, 79.232,106.24s 79.232-47.584, 79.232-106.24S 192,75.52, 192,134.176zM 480,448L 512,448L 512,352L 480,352zM 480,320L 512,320L 512,224L 480,224zM 480,192L 512,192L 512,96L 480,96z"/>
<glyph unicode="" d="M 480,416L 32,416 C 14.336,416,0,401.664,0,384l0-64 l 512,0 L 512,384 C 512,401.664, 497.664,416, 480,416zM 32,0c0-17.664, 14.336-32, 32-32l 384,0 c 17.664,0, 32,14.336, 32,32L 480,288 L 32,288 L 32,0 z M 192,224l 128,0 c 17.664,0, 32-14.336, 32-32c0-17.664-14.336-32-32-32   L 192,160 c-17.664,0-32,14.336-32,32C 160,209.664, 174.336,224, 192,224z"/>
<glyph unicode="" d="M 511.744,258.656C 510.4,337.184, 446.688,407.168, 368,407.168c-45.504,0-85.6-23.808-112-58.752   C 229.6,383.36, 189.504,407.168, 144,407.168c-78.688,0-142.4-69.984-143.744-148.512L0,258.656 c0-0.48, 0.096-0.928, 0.096-1.408   C 0.096,256.896,0,256.544,0,256.16c0-2.208, 0.544-3.872, 0.64-5.984C 7.68,50.048, 253.984-32, 253.984-32s 249.92,81.952, 257.312,281.856   C 511.424,252.096, 512,253.856, 512,256.16c0,0.384-0.096,0.736-0.096,1.088C 511.904,257.76, 512,258.176, 512,258.656L 511.744,258.656 z"/>
<glyph unicode="" d="M 352,384c0,51.392-44.608,96-96,96S 160,435.392, 160,384c0-51.392, 44.608-96, 96-96S 352,332.608, 352,384zM 256,256c-84.096,0-160-90.72-160-203.456s 320-112.736, 320,0S 340.096,256, 256,256z"/>
<glyph unicode="" d="M 224,400C 224,442.816, 186.816,480, 144,480S 64,442.816, 64,400C 64,357.184, 101.184,320, 144,320S 224,357.184, 224,400zM 280,96c0,128-66.432,192-140,192S0,224,0,96C0,8.32, 280,8.32, 280,96zM 376,257.76c 42.816,0, 80,37.184, 80,80s-37.184,80-80,80s-80-37.184-80-80S 333.184,257.76, 376,257.76zM 372,225.76c-22.112,0-43.296-6.496-62.496-18.080c 11.616-31.232, 18.496-68.256, 18.496-111.68   c0-43.104-28.736-76.672-78.048-95.872C 311.104-51.648, 512-40.608, 512,33.76C 512,161.76, 445.568,225.76, 372,225.76z"/>
<glyph unicode="" d="M 96,256l 96,0 c 17.664,0, 32,14.336, 32,32L 224,384 c0,17.664-14.336,32-32,32L 96,416 C 78.336,416, 64,401.664, 64,384l0-96 C 64,270.336, 78.336,256, 96,256zM 320,256l 96,0 c 17.664,0, 32,14.336, 32,32L 448,384 c0,17.664-14.336,32-32,32l-96,0 C 302.336,416, 288,401.664, 288,384l0-96 C 288,270.336, 302.336,256, 320,256zM 64,64c0-17.664, 14.336-32, 32-32l 96,0 c 17.664,0, 32,14.336, 32,32l0,96 c0,17.664-14.336,32-32,32L 96,192 c-17.664,0-32-14.336-32-32L 64,64 zM 288,64c0-17.664, 14.336-32, 32-32l 96,0 c 17.664,0, 32,14.336, 32,32l0,96 c0,17.664-14.336,32-32,32l-96,0 c-17.664,0-32-14.336-32-32L 288,64 z"/>
<glyph unicode="" d="M 64,320l 64,0 c 17.664,0, 32,14.336, 32,32L 160,416 c0,17.664-14.336,32-32,32L 64,448 C 46.336,448, 32,433.664, 32,416l0-64 C 32,334.336, 46.336,320, 64,320zM 224,320l 64,0 c 17.664,0, 32,14.336, 32,32L 320,416 c0,17.664-14.336,32-32,32L 224,448 C 206.336,448, 192,433.664, 192,416l0-64 C 192,334.336, 206.336,320, 224,320zM 384,320l 64,0 c 17.664,0, 32,14.336, 32,32L 480,416 c0,17.664-14.336,32-32,32l-64,0 c-17.664,0-32-14.336-32-32l0-64 C 352,334.336, 366.336,320, 384,320zM 32,192c0-17.664, 14.336-32, 32-32l 64,0 c 17.664,0, 32,14.336, 32,32L 160,256 c0,17.664-14.336,32-32,32L 64,288 C 46.336,288, 32,273.664, 32,256L 32,192 zM 192,192c0-17.664, 14.336-32, 32-32l 64,0 c 17.664,0, 32,14.336, 32,32L 320,256 c0,17.664-14.336,32-32,32L 224,288 C 206.336,288, 192,273.664, 192,256L 192,192 zM 352,192c0-17.664, 14.336-32, 32-32l 64,0 c 17.664,0, 32,14.336, 32,32L 480,256 c0,17.664-14.336,32-32,32l-64,0 c-17.664,0-32-14.336-32-32L 352,192 zM 32,32c0-17.664, 14.336-32, 32-32l 64,0 c 17.664,0, 32,14.336, 32,32l0,64 c0,17.664-14.336,32-32,32L 64,128 c-17.664,0-32-14.336-32-32L 32,32 zM 192,32c0-17.664, 14.336-32, 32-32l 64,0 c 17.664,0, 32,14.336, 32,32l0,64 c0,17.664-14.336,32-32,32L 224,128 c-17.664,0-32-14.336-32-32L 192,32 zM 352,32c0-17.664, 14.336-32, 32-32l 64,0 c 17.664,0, 32,14.336, 32,32l0,64 c0,17.664-14.336,32-32,32l-64,0 c-17.664,0-32-14.336-32-32L 352,32 z"/>
<glyph unicode="" d="M 12.768-7.296c 23.936-31.072, 73.376-33.088, 110.432-4.544c 15.072,11.616, 25.504,26.528, 31.296,42.176   C 157.824,36.928, 160,46.272, 160,56.96L 160,296.096 l 288,54.432l0-126.272 c0-44.544-34.080-54.784-46.144-57.056c-1.056-0.128-2.080-0.384-3.136-0.576   c-0.544-0.064-1.344-0.16-1.344-0.16L 397.568,166.4c-14.272-2.592-28.64-8.576-41.536-18.496c-37.056-28.544-47.712-76.864-23.776-107.936   c 23.936-31.072, 73.376-33.12, 110.432-4.576c 18.752,14.464, 30.688,33.984, 34.848,53.76C 478.976,93.952, 480,99.232, 480,105.216L 480,415.808    c0,1.952-0.384,3.616-0.544,5.472C 479.52,422.24, 480,423.328, 480,424.288l0,32 c0,17.664-14.336,27.648-32,22.24L 160,424.096   C 142.336,418.72, 128,400, 128,382.336l0-32 c0-0.448, 0.224-0.768, 0.256-1.184C 128.224,348.192, 128,347.36, 128,346.4l0-169.408 c0-44.608-34.176-54.816-46.208-57.056   c-0.608-0.096-1.216-0.288-1.856-0.384c-1.568-0.256-2.592-0.352-2.592-0.352l 0.352-0.16c-14.144-2.656-28.384-8.576-41.152-18.4   C-0.512,72.096-11.136,23.776, 12.768-7.296z"/>
<glyph unicode="" d="M 256,480C 114.624,480,0,365.376,0,224s 114.624-256, 256-256s 256,114.624, 256,256S 397.376,480, 256,480z M 224,160c0-17.664-14.336-32-32-32s-32,14.336-32,32L 160,288    c0,17.664, 14.336,32, 32,32s 32-14.336, 32-32L 224,160 z M 352,160c0-17.664-14.336-32-32-32s-32,14.336-32,32L 288,288 c0,17.664, 14.336,32, 32,32s 32-14.336, 32-32L 352,160 z"/>
<glyph unicode="" d="M 211.456,350.976C 205.344,421.28, 132,455.776, 128.896,457.184C 125.984,458.56, 122.72,458.976, 119.584,458.432   c-84.672-14.048-97.408-63.328-97.92-65.376C 20.96,390.176, 21.088,387.2, 21.984,384.416c 100.992-313.344, 310.88-371.424, 379.872-390.528   c 5.312-1.472, 9.696-2.656, 13.024-3.744c 1.6-0.544, 3.264-0.768, 4.928-0.768c 2.272,0, 4.544,0.48, 6.624,1.44   c 2.112,0.96, 51.968,24.448, 64.16,101.056c 0.544,3.328,0,6.784-1.536,9.792c-1.088,2.112-27.168,51.744-99.488,69.28   c-5.056,1.312-10.24-0.032-14.144-3.36c-22.816-19.488-54.336-40.256-67.936-42.4c-91.168,44.576-142.080,130.112-144,146.336   C 162.368,280.64, 183.264,312.672, 207.296,338.72C 210.336,342.016, 211.872,346.496, 211.456,350.976z"/>
<glyph unicode="" d="M 96,288L 192,288L 192,96L 320,96L 319.328,288L 416,288L 256,448  zM 384,32L 128,32L 128,96L 64,96L 64,32L 64-32L 448-32L 448,32L 448,96L 384,96  z"/>
<glyph unicode="" d="M 256,96L 416,256L 320,256L 320,448L 192,448L 192.576,256L 96,256  zM 64,32L 64-32L 448-32L 448,32L 448,96L 384,96L 384,32L 128,32L 128,96L 64,96  z"/>
<glyph unicode="" d="M 192.864-32l 95.936,0 l 0.064,256l 87.136,0.032l 9.344,88.224L 288.8,312.256 l 0.128,44.16c0,23.008, 1.568,35.328, 34.592,35.328l 60.992,0    L 384.512,480 L 297.056,480 C 212.288,480, 192.768,436.192, 192.768,364.224l 0.096-51.968L 128.512,312.224L 128.512,224 l 64.352,0 L 192.864-32 z"/>
<glyph unicode="" d="M 497.888,424.32c-20.288-12.032-42.784-20.768-66.72-25.504C 412,419.264, 384.704,432, 354.496,432   c-58.016,0-105.056-47.040-105.056-105.024c0-8.224, 0.928-16.256, 2.72-23.936c-87.296,4.384-164.704,46.208-216.512,109.76   C 26.592,397.312, 21.44,379.264, 21.44,360c0-36.448, 18.56-68.608, 46.72-87.424C 50.944,273.152, 34.752,277.888, 20.576,285.76c0-0.448,0-0.864,0-1.312   c0-50.88, 36.224-93.344, 84.256-103.008C 96.032,179.040, 86.752,177.76, 77.152,177.76c-6.784,0-13.344,0.672-19.776,1.888   c 13.376-41.728, 52.16-72.096, 98.112-72.96c-35.936-28.16-81.248-44.96-130.464-44.96c-8.48,0-16.832,0.512-25.056,1.472   C 46.464,33.408, 101.664,16, 160.992,16c 193.216,0, 298.88,160.064, 298.88,298.88c0,4.544-0.096,9.088-0.32,13.6   c 20.576,14.752, 38.4,33.248, 52.48,54.304c-18.848-8.352-39.072-14.016-60.32-16.544C 473.408,379.232, 490.048,399.84, 497.888,424.32z"/>
<glyph unicode="" d="M 128.96,183.904c 24.736,43.744-7.968,53.344-13.088,85.056c-20.96,129.6, 149.504,218.112, 238.784,127.552   c 61.76-62.72, 21.088-255.552-78.496-235.52C 180.768,180.16, 322.88,333.664, 246.752,363.776C 184.864,388.288, 152,288.896, 181.344,239.488   C 164.128,154.528, 127.072,74.528, 142.080-32c 48.64,35.296, 65.056,102.912, 78.496,173.408c 24.448-14.88, 37.536-30.336, 68.704-32.736   c 114.976-8.928, 179.232,114.784, 163.488,228.96c-13.952,101.184-114.848,152.704-222.432,140.64c-85.056-9.536-169.856-78.304-173.376-176.64   C 54.816,241.6, 71.84,196.544, 128.96,183.904z"/>
<glyph unicode="" d="M 137.152,14.368c 84.8,0, 131.648,48.128, 131.648,96.512c0,38.784-11.456,62.048-46.848,87.072   C 209.856,206.528, 186.688,227.36, 186.688,239.616c0,14.368, 4.096,21.44, 25.728,38.336C 234.56,295.264, 250.24,319.616, 250.24,347.904   c0,33.696-15.008,66.56-43.2,77.376l 42.464,0 l 30.016,21.664c0,0-100.48,0-133.984,0c-60.032,0-116.544-45.504-116.544-98.208   c0-53.856, 40.928-97.344, 102.048-97.344c 4.256,0, 8.384,0.096, 12.416,0.384C 139.488,244.192, 136.64,235.648, 136.64,226.752   c0-14.976, 8.064-27.104, 18.24-37.024c-7.68,0-15.136-0.224-23.232-0.224C 57.248,189.536,0,142.144,0,93.024   C0,44.64, 62.784,14.368, 137.152,14.368z M 150.4,265.056C 115.872,266.080, 83.072,303.68, 77.12,348.992C 71.168,394.336, 94.304,429.024, 128.8,428   c 34.496-1.024, 67.328-37.408, 73.28-82.72C 208.064,299.936, 184.896,264.032, 150.4,265.056z M 145.824,177.024c 12-0.128, 23.2-2.048, 33.344-5.344   c 27.904-19.36, 47.936-30.336, 53.568-52.48c 1.056-4.48, 1.632-9.088, 1.632-13.824c0-39.104-25.184-69.664-97.472-69.664   c-51.424,0-88.544,32.544-88.544,71.648C 48.352,145.696, 94.4,177.568, 145.824,177.024zM 416,352L 416,446.944L 384,446.944L 384,352L 288,352L 288,320L 384,320L 384,222.944L 416,222.944L 416,320L 512,320L 512,352  z"/>
<glyph unicode="" d="M 164.736,90.624c0-23.392, 2.464-41.28, 7.36-53.6c 4.928-12.32, 13.696-23.968, 26.432-34.912   c 12.672-10.88, 28.032-19.36, 46.016-25.28C 262.56-29.056, 276.32-32, 299.744-32c 20.608,0, 39.776,2.080, 57.536,6.208   c 17.728,4.16, 36.8,10.176, 58.656,20.448l0,76.992 c-25.632-16.864-40.96-20.288-66.88-20.288c-14.56,0-27.488,3.392-38.848,10.208   c-8.544,5.024-16.352,13.728-19.488,22.080c-3.168,8.416-2.784,25.536-2.784,55.264L 288,256l 127.968,0 L 415.968,352 L 288,352 L 288,480 l-82.56,0    C 202.176,453.6, 196.16,431.808, 187.488,414.752c-8.672-17.12-20.192-31.744-34.56-43.968C 138.656,358.592, 116.16,349.216, 96.064,342.688L 96.064,256 l 68.704,0 L 164.768,90.624 z"/>
<glyph unicode="" d="M 352,229.056L 317.984,217.056L 288,229.056L 288,167.040 C 288,107.072, 331.072,64, 384,64s 96,43.072, 96,96L 480,224 l-64,0 l0-64 c0-17.632-14.368-32-32-32   c-17.632,0-32,14.368-32,39.008L 352,229.056 zM 128,64c 52.928,0, 96,43.072, 96,96L 224,288 c0,17.632, 14.368,32, 32,32C 273.6,320, 288,305.664, 288,295.040L 288,264 l 30.016-12L 352,264L 352,295.040    C 352,340.96, 308.928,384, 256,384S 160,340.96, 160,288l0-128 c0-17.632-14.368-32-32-32c-17.632,0-32,14.368-32,32L 96,224 L 32,224 l0-64 C 32,107.072, 75.072,64, 128,64z"/>
<glyph unicode="" d="M 256,480C 114.624,480,0,365.376,0,224s 114.624-256, 256-256s 256,114.624, 256,256S 397.376,480, 256,480z M 36.576,224c0,30.976, 6.848,60.416, 19.008,86.976   l 104.672-279.296C 87.040,66.304, 36.576,139.424, 36.576,224z M 256,10.272c-21.536,0-42.304,3.072-61.984,8.704L 259.84,205.312l 67.424-179.968   c 0.448-1.056, 0.992-2.048, 1.568-2.976C 306.080,14.56, 281.568,10.272, 256,10.272z M 286.176,324.192c 13.216,0.672, 25.12,2.016, 25.12,2.016   c 11.84,1.376, 10.432,18.272-1.376,17.632c0,0-35.552-2.72-58.464-2.72c-21.536,0-57.792,2.72-57.792,2.72   C 181.824,344.512, 180.448,326.912, 192.256,326.208c0,0, 11.2-1.344, 23.008-2.016L 249.44,232.96l-48.032-140.256L 121.536,324.192   c 13.248,0.672, 25.12,2.016, 25.12,2.016c 11.808,1.376, 10.432,18.272-1.376,17.632c0,0-35.552-2.72-58.464-2.72   c-4.096,0-8.96,0.096-14.112,0.256C 111.904,399.392, 179.36,437.728, 256,437.728c 57.12,0, 109.12-21.28, 148.192-56.096   c-0.96,0.064-1.856,0.192-2.848,0.192c-21.568,0-36.864-18.272-36.864-37.92c0-17.632, 10.432-32.512, 21.536-50.144   c 8.384-14.272, 18.112-32.544, 18.112-58.944c0-18.272-7.2-39.52-16.672-69.12l-21.92-71.2L 286.176,324.192z M 475.424,224   c0-78.848-43.872-147.68-109.12-184.672l 67.040,188.704c 12.512,30.496, 16.672,54.848, 16.672,76.544c0,7.872-0.512,15.168-1.472,21.984   C 465.664,296.096, 475.424,261.152, 475.424,224z"/>
<glyph unicode="" d="M 488.896,480L 23.104,480 C 10.368,480,0,469.664,0,456.928l0-465.856 C0-21.632, 10.368-32, 23.104-32l 465.792,0    C 501.632-32, 512-21.632, 512-8.928L 512,456.928 C 512,469.664, 501.632,480, 488.896,480z M 345.344,224c0-49.344-40-89.344-89.344-89.344S 166.656,174.656, 166.656,224   c0,49.344, 40,89.344, 89.344,89.344S 345.344,273.344, 345.344,224z M 448,32L 64,32 L 64,256 l 42.144,0 C 103.936,245.664, 102.656,234.976, 102.656,224   c0-84.544, 68.8-153.344, 153.344-153.344s 153.344,68.8, 153.344,153.344c0,10.976-1.28,21.664-3.488,32L 448,256 L 448,32 z M 448,320l-96,0 L 352,416 l 96,0 L 448,320 z"/>
<glyph unicode="" d="M 256,480C 114.848,480,0,365.152,0,224s 114.848-256, 256-256s 256,114.848, 256,256S 397.152,480, 256,480z M 256,442.336c 55.584,0, 106.336-20.832, 144.96-55.104   c-3.936-5.6-36.832-49.824-114.592-78.976c-35.84,65.824-75.552,119.904-81.6,128C 221.216,440.224, 238.368,442.336, 256,442.336z M 163.040,421.568   c 5.76-7.904, 44.832-62.048, 81.056-126.464C 141.824,267.936, 51.744,268.32, 41.952,268.448C 56.128,336.32, 101.856,392.704, 163.040,421.568z M 37.312,223.68   c0,2.24, 0.032,4.48, 0.096,6.688C 46.976,230.144, 152.96,228.8, 262.144,261.472c 6.272-12.256, 12.224-24.704, 17.728-37.12   c-2.88-0.8-5.76-1.664-8.608-2.592c-112.768-36.448-172.768-135.808-177.728-144.288C 58.624,116.224, 37.344,167.52, 37.312,223.68z M 255.968,5.024   c-50.528,0-97.12,17.248-134.208,46.144c 3.936,8.032, 48.224,93.568, 171.552,136.544c 0.48,0.16, 0.96,0.32, 1.44,0.48   c 30.72-79.776, 43.392-146.624, 46.656-165.824C 315.168,11.2, 286.304,4.992, 255.968,5.024z M 378.176,42.4c-2.24,13.312-13.856,77.312-42.464,155.904   c 68.512,10.976, 128.704-6.976, 136.192-9.344C 462.144,128.128, 427.232,75.584, 378.176,42.4z M 322.336,232.768   c-1.536,3.744-3.104,7.52-4.704,11.296C 313.088,254.72, 308.224,265.312, 303.136,275.744C 384,308.736, 420.64,355.712, 425.248,361.952   c 30.464-37.216, 48.896-84.608, 49.344-136.224C 467.392,227.264, 395.104,241.92, 322.336,232.768z"/>
<glyph unicode="" d="M 293.696,327.136c 58.496,35.104, 89.728-14.272, 59.776-70.176c-29.888-55.872-57.184-92.288-71.488-92.288   c-14.272,0-25.248,37.376-41.6,102.72C 223.488,334.944, 223.584,456.608, 153.312,442.816C 87.072,429.792,0,325.824,0,325.824L 20.8,298.56   c0,0, 42.88,33.792, 57.184,16.896c 14.304-16.896, 68.864-220.992, 87.072-258.624c 15.904-33.024, 59.744-76.672, 107.872-45.504   c 48.064,31.168, 207.904,167.648, 236.544,328.8C 538.048,501.248, 317.12,467.488, 293.696,327.136z"/>
<glyph unicode="" d="M 33.024,320L 128,320L 128-32L 33.024-32zM 322.784,319.968C 288,319.968, 270.656,303.392, 256,292.16L 256,320 L 160.512,320 l0-352 L 256-32 L 256,189.6 c0,0-3.488,44.128, 49.408,44.128   C 337.28,233.728, 352,215.584, 352,189.6L 352-32 l 100.608,0 L 452.608,186.496 C 452.608,306.496, 356,319.968, 322.784,319.968zM 32,400A48,48 1260 1 1 128,400A48,48 1260 1 1 32,400z"/>
<glyph unicode="" d="M 0.192,480l0-98.176 C 228.096,381.824, 413.568,196.16, 413.568-32L 512-32 C 512,250.24, 282.368,480, 0.192,480zM 239.424-32l 98.56,0 c 0.032,186.432-151.616,338.080-337.92,338.080l0-98.144 c 63.904,0, 123.968-24.992, 169.216-70.272   C 214.464,92.512, 239.424,32.16, 239.424-32zM 68.16-31.36c 37.728,0, 68.256,30.336, 68.256,67.904c-0.032,37.344-30.528,68.032-68.256,68.032   C 30.56,104.576,0,73.92,0,36.544C0-1.024, 30.56-31.36, 68.16-31.36z"/>
<glyph unicode="" d="M 363.872,312.832C 306.56,326.272, 244.48,325.696, 180.896,316.096C 178.592,315.744, 176.32,315.392, 174.048,315.008l-21.12,39.136   c-20.576-2.752-39.904-7.040-57.792-12.736l 20.128-42.112C 82.368,286.56, 55.392,268.416, 35.936,246.592c-32.128-36.48-44.832-82.4-29.408-127.136   c 3.104-9.024, 7.296-17.568, 12.48-25.6l 239.040,65.664L 191.68,282.432C 193.952,282.88, 196.288,283.328, 198.656,283.744c 107.328,19.136, 166.048-10.432, 198.208-41.92   l-81.792-19.84L 280.928,276.544c-19.52,1.152-42.048-0.032-68.128-4.48l 60.16-108.448L 512,229.248c-2.592,6.144-6.336,12.128-11.328,17.888   C 475.936,275.776, 422.304,301.312, 363.872,312.832z M 87.36,166.848C 79.968,200.512, 85.856,238.112, 132.576,263.136l 36.576-76.48L 87.36,166.848z"/>
<glyph unicode="" d="M 377.376,328.896c 14.080-10.656, 31.552-17.024, 50.56-17.024C 474.368,311.872, 512,349.504, 512,395.936   C 512,442.368, 474.368,480, 427.936,480c-46.4,0-84.064-37.632-84.064-84.064c0-0.032,0-0.064,0-0.064L 136.384,295.552   C 122.016,307.008, 103.84,313.92, 84.064,313.92C 37.632,313.92,0,276.256,0,229.856s 37.632-84.064, 84.064-84.064c 16.768,0, 32.384,4.992, 45.504,13.44   l 214.336-103.616c0-0.032,0-0.064,0-0.064c0-46.432, 37.632-84.064, 84.064-84.064c 46.432,0, 84.064,37.632, 84.064,84.064   c0,46.432-37.632,84.064-84.064,84.064c-19.008,0-36.48-6.368-50.56-17.024L 167.808,223.904c 0.096,1.28, 0.16,2.528, 0.192,3.808L 377.376,328.896z"/>
<glyph unicode="" d="M 252.736,351.776C 265.152,364.192, 271.392,379.424, 271.392,397.44c0,17.536-6.24,32.544-18.656,44.96   C 240.352,454.784, 225.056,460.992, 207.040,460.992c-17.472,0-32.48-6.208-44.896-18.592C 149.728,429.952, 143.488,414.976, 143.488,397.44   c0-18.016, 6.24-33.248, 18.656-45.664C 174.592,339.36, 189.568,333.152, 207.040,333.152C 225.056,333.152, 240.352,339.36, 252.736,351.776zM 309.728,337.888C 317.28,330.336, 326.048,324.384, 336.032,320c 9.984-4.352, 20.864-6.56, 32.512-6.56   c 11.712,0, 22.528,2.208, 32.512,6.56c 9.984,4.416, 18.72,10.336, 26.304,17.888c 7.552,7.552, 13.536,16.32, 17.92,26.304   c 4.384,9.984, 6.592,20.8, 6.592,32.544c0,11.68-2.176,22.496-6.592,32.512c-4.352,9.984-10.368,18.752-17.92,26.304   c-7.552,7.552-16.288,13.536-26.304,17.888C 391.104,477.824, 380.256,480, 368.544,480c-11.648,0-22.528-2.176-32.512-6.56   c-9.984-4.352-18.752-10.336-26.304-17.888C 302.208,447.968, 296.256,439.2, 291.84,429.216c-4.384-9.984-6.592-20.8-6.592-32.512   c0-11.712, 2.208-22.528, 6.592-32.544C 296.256,354.208, 302.208,345.44, 309.728,337.888zM 85.024,347.744c 13.664,0, 25.088,4.736, 34.368,14.24C 128.64,371.52, 133.248,383.072, 133.248,396.736   c0,13.152-4.64,24.48-13.856,33.952c-9.28,9.504-20.704,14.272-34.368,14.272c-13.6,0-25.216-4.768-34.656-14.272   c-9.536-9.472-14.272-20.8-14.272-33.952c0-13.664, 4.768-25.216, 14.272-34.72C 59.84,352.512, 71.424,347.744, 85.024,347.744zM 448.96,247.648c-10.208,10.24-22.304,18.272-36.16,24.128c-13.92,5.856-28.672,8.768-44.256,8.768   c-15.584,0-30.208-2.912-43.808-8.768C 311.072,265.92, 299.168,258.112, 288.928,248.384c-4.864,18.016-14.752,32.96-29.6,44.928   C 244.448,305.248, 227.040,311.232, 207.040,311.232c-12.672,0-24.576-2.688-35.808-8.032C 160.096,297.792, 150.304,290.272, 142.080,280.544   C 138.592,293.184, 131.84,303.776, 121.6,312.32C 111.392,320.864, 99.2,325.088, 85.024,325.088c-16.544,0-30.56-5.728-41.984-17.152C 31.584,296.512, 32,282.464, 32,265.92   l0-102.432 l 84.128,0 l0-83.872 l 140.96,0 L 257.088-32 l 225.024,0 L 482.112,167.296 c0,15.584-2.592,30.336-8.704,44.192C 467.328,225.376, 459.168,237.44, 448.96,247.648z"/>
<glyph unicode="" d="M 489.856,222.752c0,129.152-105.28,233.888-235.104,233.888c-12.896,0-25.568-1.056-37.856-3.072   c-22.080,14.4-48.352,22.752-76.608,22.752C 62.752,476.32,0,413.504,0,336c0-28.192, 8.288-54.4, 22.592-76.384c-1.92-12.032-2.912-24.32-2.912-36.864   c0-129.184, 105.216-233.888, 235.072-233.888c 14.656,0, 28.928,1.44, 42.784,3.936c 21.536-13.376, 46.944-21.152, 74.144-21.152   c 77.536,0, 140.32,62.816, 140.32,140.32c0,29.28-8.96,56.512-24.352,79.040C 489.056,201.408, 489.856,212, 489.856,222.752z M 276.736,50.4   c-74.72-3.904-109.664,12.64-141.696,42.688c-35.776,33.568-21.408,71.84, 7.744,73.792c 29.12,1.952, 46.592-33.024, 62.144-42.72   c 15.52-9.696, 74.592-31.776, 105.792,3.904c 33.984,38.816-22.592,58.912-64.064,64.992C 187.456,201.824, 112.704,233.824, 118.528,296.96   C 124.352,360, 172.096,392.384, 222.368,396.928c 64.064,5.824, 105.792-9.696, 138.784-37.856c 38.144-32.544, 17.504-68.896-6.784-71.808   c-24.224-2.912-51.392,53.504-104.8,54.336C 194.528,342.464, 157.344,284.32, 225.28,267.808c 67.968-16.512, 140.736-23.296, 166.976-85.408   S 351.52,54.304, 276.736,50.4z"/>
<glyph unicode="" d="M 442.752,399.264c-116.576,7.84-254.784,9.984-373.504,0C 32.384,395.136, 7.136,350.272, 4.384,316.192   c-5.824-71.584-5.824-112.32,0-183.904c 2.784-34.080, 27.392-79.2, 64.896-83.936c 120.128-7.872, 257.632-8.96, 373.504,0   c 36.288,6.304, 62.112,49.856, 64.896,83.936c 5.824,71.584, 5.824,116.768,0,188.384C 504.864,354.752, 484.512,397.728, 442.752,399.264z M 192,133.44L 192,316.96    l 160-91.776L 192,133.44z"/>
<glyph unicode="" d="M 128,2.272L 128,229.12 l-106.944-106.912C 42.976,71.68, 80.704,29.632, 128,2.272zM 160-13.376C 189.632-25.376, 222.048-32, 256-32c 94.752,0, 177.472,51.488, 221.728,128L 160,96 L 160-13.376 zM 213.12,368L 132.736,448.416C 53.6,404.864,0,320.704,0,224c0-21.248, 2.592-41.888, 7.488-61.632L 213.12,368zM 352,461.376C 322.336,473.376, 289.952,480, 256,480C 225.728,480, 196.704,474.72, 169.76,465.088L 352,282.88L 352,461.376 zM 384,445.728L 384,128 l 109.376,0 C 505.376,157.664, 512,190.048, 512,224C 512,318.752, 460.512,401.472, 384,445.728z"/>
<glyph unicode="" d="M 487.808,192L 341.344,445.76L 170.656,445.76L 317.152,192  zM 231.744,255.904L 146.432,403.744L0,150.080L 85.344,2.24  zM 144.352-0.672L 426.656-0.672L 512,160L 236,160  z"/>
<glyph unicode="" d="M0,225.76A106.656,106.656 1260 1 1 213.312,225.76A106.656,106.656 1260 1 1 0,225.76zM 298.688,225.76A106.656,106.656 1260 1 1 512,225.76A106.656,106.656 1260 1 1 298.688,225.76z"/>
<glyph unicode="" d="M 478.912,288l-28.096,0 l-0.608,0 C 432.64,288, 417.216,302.88, 416,320c0,91.328-73.632,160-165.6,160L 166.496,480    C 74.592,480, 0.064,405.984,0,314.656l0-181.408 C0,41.952, 74.592-32, 166.496-32l 179.2,0 C 437.664-32, 512,41.952, 512,133.28L 512,250.464    C 512,268.704, 497.28,288, 478.912,288z M 160,352l 96,0 c 17.6,0, 32-14.4, 32-32S 273.6,288, 256,288L 160,288 C 142.4,288, 128,302.4, 128,320S 142.4,352, 160,352z M 352,96L 160,96 c-17.6,0-32,14.4-32,32   s 14.4,32, 32,32l 192,0 c 17.6,0, 32-14.4, 32-32S 369.6,96, 352,96z"/>
<glyph unicode="" d="M 256,480C 114.624,480,0,365.376,0,224c0-141.376, 114.624-256, 256-256s 256,114.624, 256,256C 512,365.376, 397.376,480, 256,480z M 374.272,73.92   c-3.2-5.824-9.216-9.12-15.424-9.12c-2.88,0-5.76,0.704-8.48,2.176c-40.992,22.592-87.552,34.528-134.592,34.528   c-28.192,0-56.032-4.192-82.688-12.448c-9.28-2.88-19.136,2.336-21.984,11.616c-2.88,9.28, 2.304,28.96, 11.616,31.84   c 30.048,9.28, 61.376,14.016, 93.088,14.016c 52.96,0, 105.376-13.44, 151.552-38.88C 375.872,102.976, 378.976,82.432, 374.272,73.92z M 406.784,170.368   c-3.648-7.040-10.816-18.464-18.24-18.464c-3.2,0-6.432,0.736-9.44,2.336c-50.784,26.368-105.728,39.744-163.296,39.744   c-31.712,0-63.2-4.192-93.6-12.512c-10.976-2.976-22.24,3.456-25.216,14.4C 94.048,206.816, 100.48,225.472, 111.424,228.448   c 33.92,9.248, 69.056,13.952, 104.384,13.952c 63.328,0, 126.336-15.36, 182.208-44.384C 408.064,192.8, 412,180.416, 406.784,170.368z M 441.408,263.040   c-4.128-8.224-12.384-15.456-21.024-15.456c-3.52,0-7.072,0.8-10.432,2.464c-60.64,30.24-125.952,45.536-194.144,45.536   c-35.52,0-70.912-4.32-105.248-12.8c-12.576-3.104-25.28,4.544-28.384,17.12C 79.040,312.448, 86.72,327.648, 99.296,330.752   C 137.28,340.192, 176.48,344.96, 215.808,344.96c 75.52,0, 147.872-16.992, 215.040-50.464C 442.464,288.704, 447.168,274.624, 441.408,263.040z"/>
<glyph unicode="" d="M 480,480L 256,480 L 32,480 L 22.784,480 C 10.24,480,0,469.76,0,457.184L0,448 l0-224 l0-224 c0-17.664, 14.336-32, 32-32l 224.352,0 L 480-32 l 9.216,0    C 501.76-32, 512-21.76, 512-9.184L 512,0 L 512,223.264 L 512,448 C 512,465.664, 497.664,480, 480,480z M 256.352,223.264L 256.352,0 L 32,0 L 32,224 l 224,0 L 256,448 l 224,0 l0-224.736 L 256.352,223.264 z"/>
<glyph unicode="" d="M 256,480C 114.624,480,0,365.376,0,224s 114.624-256, 256-256s 256,114.624, 256,256C 512,365.408, 397.376,480, 256,480z M 322.176,224.032L 280.224,224   l-0.032-153.6L 222.624,70.4 L 222.624,224 l-38.4,0 L 184.224,276.928 l 38.4,0.032L 222.56,308.128C 222.56,351.328, 234.272,377.6, 285.12,377.6l 42.368,0 l0-52.96 L 300.992,324.64    c-19.808,0-20.768-7.392-20.768-21.184L 280.16,276.96l 47.616,0 L 322.176,224.032z"/>
<glyph unicode="" d="M 256,480C 114.624,480,0,365.376,0,224s 114.624-256, 256-256s 256,114.624, 256,256C 512,365.408, 397.376,480, 256,480z M 383.36,281.472   c 0.128-2.72, 0.192-5.44, 0.192-8.16c0-83.296-63.392-179.328-179.328-179.328c-35.584,0-68.704,10.432-96.608,28.32   c 4.928-0.576, 9.952-0.896, 15.040-0.896c 29.536,0, 56.704,10.080, 78.272,26.976c-27.584,0.512-50.848,18.752-58.88,43.776   C 145.92,191.424, 149.824,191.040, 153.92,191.040c 5.76,0, 11.328,0.768, 16.608,2.208C 141.696,199.040, 119.968,224.512, 119.968,255.040c0,0.256,0,0.512,0,0.8   c 8.512-4.736, 18.208-7.552, 28.544-7.904C 131.616,259.232, 120.48,278.528, 120.48,300.384c0,11.552, 3.104,22.368, 8.512,31.68   c 31.072-38.144, 77.536-63.232, 129.92-65.856C 257.824,270.816, 257.28,275.648, 257.28,280.576c0,34.784, 28.224,63.008, 63.040,63.008   c 18.112,0, 34.496-7.648, 46.016-19.904c 14.368,2.848, 27.872,8.096, 40.032,15.296c-4.704-14.72-14.688-27.072-27.712-34.88   c 12.736,1.504, 24.896,4.928, 36.192,9.92C 406.4,301.408, 395.68,290.304, 383.36,281.472z"/>
<glyph unicode="" d="M 256,480C 114.624,480,0,365.376,0,224s 114.624-256, 256-256s 256,114.624, 256,256C 512,365.408, 397.376,480, 256,480z M 275.968,154.784   c-18.72,1.44-26.56,10.72-41.216,19.648c-8.064-42.304-17.92-82.88-47.104-104.032C 178.624,134.304, 200.864,182.304, 211.2,233.28   C 193.6,262.944, 213.312,322.56, 250.432,307.872c 45.664-18.080-39.584-110.176, 17.664-121.664c 59.744-12.032, 84.16,103.68, 47.104,141.312   c-53.568,54.336-155.84,1.248-143.264-76.544c 3.072-19.008, 22.688-24.768, 7.84-51.040C 145.504,207.52, 135.264,234.56, 136.576,270.592   c 2.112,58.976, 52.992,100.256, 104.032,105.984c 64.544,7.232, 125.088-23.68, 133.472-84.384C 383.52,223.68, 344.96,149.44, 275.968,154.784z"/>
<glyph unicode="" d="M 256,480C 114.624,480,0,365.376,0,224s 114.624-256, 256-256s 256,114.624, 256,256C 512,365.408, 397.376,480, 256,480z M 184.576,51.744   c-56.672,0-104.48,23.072-104.48,59.936c0,37.408, 43.616,73.536, 100.288,73.504c 6.176,0, 11.84,0.16, 17.696,0.16   C 190.336,192.864, 184.192,202.112, 184.192,213.536c0,6.784, 2.176,13.28, 5.184,19.072C 186.304,232.384, 183.168,232.288, 179.936,232.288   c-46.56,0-77.728,33.12-77.728,74.176c0,40.16, 43.040,74.816, 88.8,74.816c 25.536,0, 102.080,0, 102.080,0L 270.176,364.768L 237.824,364.768    c 21.472-8.256, 32.896-33.28, 32.896-58.944c0-21.536-11.936-40.096-28.8-53.28C 225.44,239.648, 222.336,234.272, 222.336,223.328   c0-9.344, 17.664-25.216, 26.88-31.744c 26.976-19.072, 35.68-36.8, 35.68-66.336C 284.864,88.384, 249.184,51.744, 184.576,51.744z M 448,255.392l-64,0 l0-63.872    l-31.968,0 L 352.032,255.392 L 288,255.392 L 288,288 l 64.032,0 L 352.032,352 L 384,352 l0-64 l 64,0 L 448,255.392 zM 216.608,171.584C 208.864,174.080, 200.32,175.552, 191.2,175.648c-39.168,0.416-74.24-23.872-74.24-53.088   c0-29.792, 28.288-54.592, 67.456-54.592c 55.072,0, 74.24,23.296, 74.24,53.056c0,3.616-0.448,7.104-1.248,10.528   C 253.12,148.448, 237.856,156.832, 216.608,171.584zM 234.048,303.84C 229.504,338.336, 204.512,366.048, 178.24,366.848c-26.272,0.768-43.904-25.632-39.36-60.192   c 4.544-34.528, 29.536-63.168, 55.84-63.936C 220.96,241.92, 238.624,269.28, 234.048,303.84z"/>
<glyph unicode="" d="M 256,480C 114.624,480,0,365.376,0,224s 114.624-256, 256-256s 256,114.624, 256,256C 512,365.408, 397.376,480, 256,480z M 351.968,243.2L 275.2,243.2 L 275.168,172.96   c0-17.824-0.224-28.096, 1.664-33.152c 1.888-5.024, 6.56-10.24, 11.68-13.248c 6.816-4.096, 14.56-6.112, 23.296-6.112   c 15.552,0, 24.736,2.048, 40.128,12.16L 351.936,86.4 c-13.12-6.176-24.544-9.76-35.2-12.256C 306.112,71.648, 294.624,70.4, 282.24,70.4   c-14.048,0-22.336,1.76-33.12,5.312c-10.784,3.552-20,8.64-27.616,15.168c-7.648,6.56-12.896,13.568-15.872,20.96   c-2.944,7.392-4.416,18.112-4.416,32.16L 201.216,251.712 L 160.032,251.712 l0,43.52 c 12.064,3.904, 25.568,9.536, 34.144,16.864   c 8.608,7.328, 15.52,16.096, 20.736,26.368C 220.096,348.672, 223.68,361.76, 225.664,377.6L 275.2,377.6 l0-76.8 l 76.768,0 L 351.968,243.2 z"/>
<glyph unicode="" d="M 256,480C 114.624,480,0,365.376,0,224s 114.624-256, 256-256s 256,114.624, 256,256C 512,365.408, 397.376,480, 256,480z M 256,292.608   c-12.608,0-22.88-10.272-22.88-22.88l0-91.488 c0-37.824-30.784-68.608-68.608-68.608c-37.824,0-68.608,30.784-68.608,68.608L 95.904,224 l 45.728,0 l0-45.728    c0-12.608, 10.272-22.88, 22.88-22.88c 12.608,0, 22.88,10.272, 22.88,22.88L 187.392,269.728 c0,37.824, 30.784,68.608, 68.608,68.608s 68.608-30.784, 68.608-63.616   l0-22.176 L 295.296,244L 278.848,252.576L 278.848,274.752 C 278.848,282.336, 268.576,292.608, 256,292.608z M 416.064,178.272c0-37.824-30.784-68.608-68.608-68.608   s-68.608,30.784-68.608,73.632L 278.848,227.584 l 16.448-8.576l 29.312,8.576l0-44.32 c0-17.6, 10.272-27.872, 22.88-27.872s 22.88,10.272, 22.88,22.88L 370.368,224 l 45.728,0    L 416.096,178.272 z"/>
<glyph unicode="" d="M 256,480C 114.624,480,0,365.376,0,224s 114.624-256, 256-256s 256,114.624, 256,256S 397.376,480, 256,480z M 36.576,224c0,30.976, 6.848,60.416, 19.008,86.976   l 104.672-279.296C 87.040,66.304, 36.576,139.424, 36.576,224z M 256,10.272c-21.536,0-42.304,3.072-61.984,8.704L 259.84,205.312l 67.424-179.968   c 0.448-1.056, 0.992-2.048, 1.568-2.976C 306.080,14.56, 281.568,10.272, 256,10.272z M 286.176,324.192c 13.216,0.672, 25.12,2.016, 25.12,2.016   c 11.84,1.376, 10.432,18.272-1.376,17.632c0,0-35.552-2.72-58.464-2.72c-21.536,0-57.792,2.72-57.792,2.72   C 181.824,344.512, 180.448,326.912, 192.256,326.208c0,0, 11.2-1.344, 23.008-2.016L 249.44,232.96l-48.032-140.256L 121.536,324.192   c 13.248,0.672, 25.12,2.016, 25.12,2.016c 11.808,1.376, 10.432,18.272-1.376,17.632c0,0-35.552-2.72-58.464-2.72   c-4.096,0-8.96,0.096-14.112,0.256C 111.904,399.392, 179.36,437.728, 256,437.728c 57.12,0, 109.12-21.28, 148.192-56.096   c-0.96,0.064-1.856,0.192-2.848,0.192c-21.568,0-36.864-18.272-36.864-37.92c0-17.632, 10.432-32.512, 21.536-50.144   c 8.384-14.272, 18.112-32.544, 18.112-58.944c0-18.272-7.2-39.52-16.672-69.12l-21.92-71.2L 286.176,324.192z M 475.424,224   c0-78.848-43.872-147.68-109.12-184.672l 67.040,188.704c 12.512,30.496, 16.672,54.848, 16.672,76.544c0,7.872-0.512,15.168-1.472,21.984   C 465.664,296.096, 475.424,261.152, 475.424,224z"/>
<glyph unicode="" d="M 256,480C 114.624,480,0,365.376,0,224s 114.624-256, 256-256s 256,114.624, 256,256C 512,365.408, 397.376,480, 256,480z M 416,75.552   C 416,69.184, 410.816,64, 404.448,64L 107.552,64 C 101.184,64, 96,69.184, 96,75.552L 96,372.448 C 96,378.816, 101.184,384, 107.552,384l 296.896,0 C 410.816,384, 416,378.816, 416,372.448   L 416,75.552 zM 192,224A64,64 1260 1 1 320,224A64,64 1260 1 1 192,224zM 320,352L 384,352L 384,288L 320,288zM 351.2,224c0-52.512-42.72-95.2-95.2-95.2S 160.8,171.488, 160.8,224c0,6.816, 0.8,9.568, 2.144,16L 128,240 L 128,96 l 256,0 L 384,240    l-34.944,0 C 350.432,233.568, 351.2,230.816, 351.2,224z"/>
<glyph unicode="" d="M 315.648,204.768c 21.408-58.816, 30.112-106.72, 31.776-116.672c 36.704,24.832, 62.848,64.16, 70.144,109.696   C 412,199.552, 366.944,212.992, 315.648,204.768zM 283.936,196.832c-92.288-32.16-125.44-96.192-128.384-102.208c 27.744-21.632, 62.624-34.528, 100.448-34.528   c 22.688-0.032, 44.32,4.608, 63.936,12.992c-2.432,14.368-11.936,64.416-34.912,124.096C 284.64,197.088, 284.288,196.96, 283.936,196.832zM 291.264,262.72c 3.808-7.808, 7.456-15.744, 10.848-23.712c 1.184-2.816, 2.368-5.664, 3.52-8.448   c 54.464,6.848, 108.576-4.128, 113.952-5.28c-0.32,38.624-14.144,74.112-36.928,101.952C 379.232,322.592, 351.808,287.424, 291.264,262.72zM 267.424,222.336C 269.568,223.008, 271.712,223.68, 273.856,224.256C 269.76,233.568, 265.28,242.88, 260.608,252.032   C 178.88,227.584, 99.552,228.608, 92.384,228.768C 92.352,227.104, 92.32,225.44, 92.32,223.776c 0.032-42.048, 15.936-80.416, 42.080-109.44   C 138.112,120.672, 183.008,195.040, 267.424,222.336zM 247.104,277.216C 219.968,325.44, 190.752,365.952, 186.432,371.872C 140.64,350.272, 106.4,308.064, 95.808,257.28   C 103.136,257.184, 170.56,256.896, 247.104,277.216zM 364.48,346.176C 335.584,371.808, 297.6,387.424, 256,387.424c-13.184,0-26.048-1.568-38.336-4.544   C 222.176,376.8, 251.904,336.32, 278.72,287.072C 336.928,308.864, 361.536,341.984, 364.48,346.176zM 256,480C 114.624,480,0,365.376,0,224s 114.624-256, 256-256s 256,114.624, 256,256C 512,365.408, 397.376,480, 256,480z M 256,32.416   c-105.632,0-191.584,85.952-191.584,191.584c0,105.632, 85.952,191.584, 191.584,191.584S 447.584,329.632, 447.584,224C 447.584,118.368, 361.632,32.416, 256,32.416z"/>
<glyph unicode="" d="M 256,480C 114.624,480,0,365.376,0,224s 114.624-256, 256-256s 256,114.624, 256,256C 512,365.408, 397.376,480, 256,480z M 408.064,293.664   c-17.184-96.704-113.088-178.592-141.92-197.28c-28.864-18.688-55.168,7.488-64.736,27.296C 190.496,146.272, 157.76,268.736, 149.184,278.88   C 140.608,289.024, 114.88,268.736, 114.88,268.736L 102.4,285.088c0,0, 52.256,62.368, 92,70.208C 236.544,363.584, 236.48,290.56, 246.624,250.048   c 9.824-39.2, 16.384-61.632, 24.96-61.632c 8.576,0, 24.96,21.856, 42.88,55.36c 17.984,33.536-0.768,63.168-35.872,42.112   C 292.672,370.080, 425.216,390.336, 408.064,293.664z"/>
<glyph unicode="" d="M 256,480C 114.624,480,0,365.376,0,224s 114.624-256, 256-256s 256,114.624, 256,256C 512,365.408, 397.376,480, 256,480z M 192,100L 128,100 l0,224 l 64,0 L 192,100 z    M 161.984,337.728c-16.576,0-29.984,13.44-29.984,30.016c0,16.576, 13.44,30.016, 29.984,30.016C 178.56,397.728, 192,384.288, 192,367.744   C 192,351.168, 178.56,337.728, 161.984,337.728z M 416,100l-64,0 L 352,238.496 c0,16.224-4.64,27.584-24.576,27.584C 294.368,266.080, 288,238.496, 288,238.496l0-138.496 L 224,100 l0,224 l 64,0    l0-21.408 c 9.152,7.008, 32,21.376, 64,21.376c 20.768,0, 64-12.416, 64-87.424L 416,100 z"/>
<glyph unicode="" d="M 256,480C 114.624,480,0,365.376,0,224s 114.624-256, 256-256s 256,114.624, 256,256C 512,365.408, 397.376,480, 256,480z M 138.080,64.768   c-23.008,0-41.696,18.56-41.696,41.536c0,22.848, 18.688,41.632, 41.696,41.632c 23.072,0, 41.728-18.784, 41.76-41.632   C 179.84,83.328, 161.184,64.768, 138.080,64.768z M 242.848,64.384c0,39.264-15.264,76.16-42.912,103.776C 172.288,195.872, 135.52,211.168, 96.448,211.168L 96.448,271.2    c 113.952,0, 206.72-92.768, 206.72-206.816L 242.848,64.384 z M 349.376,64.416c0,139.584-113.44,253.152-252.864,253.152L 96.512,377.6 c 172.608,0, 313.088-140.544, 313.088-313.184   L 349.376,64.416 z"/>
<glyph unicode="" d="M 256,480C 114.624,480,0,365.376,0,224s 114.624-256, 256-256s 256,114.624, 256,256C 512,365.408, 397.376,480, 256,480z M 273.664,183.36L 233.184,256.352   c 17.536,3.008, 32.704,3.776, 45.856,3.008l 22.976-36.704l 55.040,13.344c-21.632,21.184-61.152,41.088-133.408,28.224   C 222.048,263.936, 220.48,263.616, 218.944,263.328l 44.672-82.72l-160.864-44.192c-3.488,5.408-6.304,11.168-8.384,17.216   C 83.968,183.744, 92.512,214.656, 114.144,239.2c 13.088,14.688, 31.264,26.912, 53.376,35.456L 153.984,303.008c 12.032,3.84, 25.056,6.72, 38.88,8.576   l 14.208-26.336C 208.608,285.504, 210.144,285.76, 211.712,285.984c 42.784,6.464, 84.576,6.848, 123.136-2.208c 39.328-7.744, 75.424-24.928, 92.064-44.224   c 3.36-3.872, 5.888-7.904, 7.616-12.032L 273.664,183.36zM 148.736,185.536l 55.040,13.344L 179.168,250.336C 147.744,233.504, 143.776,208.192, 148.736,185.536z"/>
<glyph unicode="" d="M 256,480C 114.624,480,0,365.376,0,224s 114.624-256, 256-256s 256,114.624, 256,256C 512,365.408, 397.376,480, 256,480z M 309.152,165.984   c 7.904,5.984, 17.76,9.568, 28.448,9.568c 26.112,0, 47.296-21.152, 47.296-47.296c0-26.112-21.184-47.296-47.296-47.296   c-26.112,0-47.264,21.152-47.264,47.296c0,0,0,0.032,0,0.032L 169.728,186.592c-7.392-4.768-16.16-7.584-25.6-7.584   c-26.112,0-47.296,21.184-47.296,47.296c0,26.112, 21.184,47.296, 47.296,47.296c 11.136,0, 21.344-3.872, 29.44-10.304L 290.304,319.68   c0,0,0,0.032,0,0.032c0,26.112, 21.184,47.296, 47.264,47.296c 26.112,0, 47.296-21.152, 47.296-47.296s-21.184-47.296-47.296-47.296   c-10.688,0-20.512,3.584-28.448,9.568L 191.36,225.088c0-0.704-0.064-1.44-0.096-2.144L 309.152,165.984z"/>
</font>
</defs>
</svg>
